Важное объявление!
У Нас Все раздачи мультитрекерные, при нуле пиров в релизах, можете смело вставать на закачку!
 
Автор Сообщение

HUNTER

Стаж:
4 года 4 месяца
Сообщений:
56733

Репутация: 101

[+] [-]
Вне форума [Профиль] [ЛС]

Пузырь / Фантастическое вторжение на планету Земля
The Bubble / Fantastic Invasion of Planet Earth
-
Год выпуска: 1966
Страна: США (Midwestern MagicVuers)
Жанр: Фантастика
Продолжительность: 01:31:01
Озвучка: Одноголосая закадровая - Den904
Перевод: Severnyj
Спонсорская поддержка: ViLiN
Режиссер: Арч Оболер / Arch Oboler-В ролях: Майкл Коул (Mark), Дебора Уолли (Catherine), Джонни Десмонд (Tony Herric), Касси МакМахон (Doctor), Барбара Эйлер (Talent), Вирджиния Грегг (Ticket Cashier), Вик Перрин (Taxi Driver), Олэн Сул (Watch Repairman), Честер Джонс (Newspaper Vendor)-Описание: Самолет с героями фильма в непогоду вынужден сесть в небольшом городке. Не сразу понимают герои, что космические пришельцы накрыли город куполом (как накрывают стаканом исследуемое насекомое). Обитатели города двигаются как во сне, они потеряли память и время для них остановилось на минуте вторжения. Герои предпринимают все усилия, чтобы вырваться из города.-Доп. инфо: 3Д в основном глубокое, как и в большинстве старых фильмов.-Премьера (мир): 21 декабря 1966
. .
За русскую дорогу большое спасибо S.V.O.!
-Качество: BDRip (by Ash61)
Контейнер: MKV
Формат 3D: Half OverUnder / Вертикальная анаморфная стереопара
Порядок ракурсов: левый ракурс первый-Видео: AVC / 1920х1080p / 23,976 fps / 10.6 Mbps
Аудио:
#1 - Русский / AC3 / 48 KHz / 2 ch / 448 Kbps (VO - Den904)
#2 - Английский / AC3 / 48 KHz / 2 ch / 448 Kbps (Original - BD 3D)
Субтитры: Отсутствуют

MediaInfo

General
Unique ID : 191449544320148504677567853451923692877 (0x9007D74D627A75DB81676321C0D81D4D)
Complete name : E:\TheBubble(1966)3D-halfOU(Ash61)VO.mkv
Format : Matroska
Format version : Version 2
File size : 7.45 GiB
Duration : 1h 31mn
Overall bit rate : 11.7 Mbps
Movie name : Пузырь / Фантастическое вторжение на планету Земля / The Bubble / Fantastic Invasion of Planet Earth (1966) в 3Д
Encoded date : UTC 2016-06-03 15:43:45
Writing application : mkvmerge v5.8.0 ('No Sleep / Pillow') built on Sep 2 2012 15:37:04
Writing library : libebml v1.2.3 + libmatroska v1.3.0
Video
ID : 1
Format : AVC
Format/Info : Advanced Video Codec
Format profile : High@L4.1
Format settings, CABAC : Yes
Format settings, ReFrames : 4 frames
Codec ID : V_MPEG4/ISO/AVC
Duration : 1h 31mn
Bit rate : 10.6 Mbps
Width : 1 920 pixels
Height : 1 080 pixels
Display aspect ratio : 16:9
Frame rate mode : Constant
Frame rate : 23.976 fps
Color space : YUV
Chroma subsampling : 4:2:0
Bit depth : 8 bits
Scan type : Progressive
Bits/(Pixel*Frame) : 0.213
Stream size : 6.73 GiB (90%)
Title : BDRip by Ash61
Writing library : x264 core 138 r2358 9e941d1
Encoding settings : cabac=1 / ref=4 / deblock=1:-3:-3 / analyse=0x3:0x113 / me=umh / subme=10 / psy=1 / psy_rd=1.00:0.00 / mixed_ref=1 / me_range=32 / chroma_me=1 / trellis=2 / 8x8dct=1 / cqm=0 / deadzone=21,11 / fast_pskip=1 / chroma_qp_offset=-2 / threads=12 / lookahead_threads=2 / sliced_threads=0 / nr=0 / decimate=1 / interlaced=0 / bluray_compat=0 / constrained_intra=0 / bframes=9 / b_pyramid=2 / b_adapt=2 / b_bias=0 / direct=3 / weightb=1 / open_gop=0 / weightp=2 / keyint=250 / keyint_min=23 / scenecut=40 / intra_refresh=0 / rc_lookahead=60 / rc=crf / mbtree=1 / crf=17.5 / qcomp=0.70 / qpmin=0 / qpmax=69 / qpstep=4 / vbv_maxrate=40000 / vbv_bufsize=30000 / crf_max=0.0 / nal_hrd=none / frame-packing=4 / ip_ratio=1.40 / aq=1:0.70
Language : English
Default : Yes
Forced : No
Audio #1
ID : 2
Format : AC-3
Format/Info : Audio Coding 3
Mode extension : CM (complete main)
Format settings, Endianness : Big
Codec ID : A_AC3
Duration : 1h 31mn
Bit rate mode : Constant
Bit rate : 448 Kbps
Channel(s) : 2 channels
Channel positions : Front: L R
Sampling rate : 48.0 KHz
Bit depth : 16 bits
Compression mode : Lossy
Stream size : 292 MiB (4%)
Title : Одноголосый закадровый - Den904 (перевод - Severnyj)
Language : Russian
Default : Yes
Forced : No
Audio #2
ID : 3
Format : AC-3
Format/Info : Audio Coding 3
Mode extension : CM (complete main)
Format settings, Endianness : Big
Codec ID : A_AC3
Duration : 1h 31mn
Bit rate mode : Constant
Bit rate : 448 Kbps
Channel(s) : 2 channels
Channel positions : Front: L R
Sampling rate : 48.0 KHz
Bit depth : 16 bits
Compression mode : Lossy
Stream size : 292 MiB (4%)
Title : Original - BD 3D
Language : English
Default : No
Forced : No
Menu
00:00:00.000 : :1
00:09:53.510 : :2
00:18:59.472 : :3
00:24:44.024 : :4
00:36:31.022 : :5
00:50:19.099 : :6
01:01:50.916 : :7
01:08:02.078 : :8
01:15:30.234 : :9
01:24:28.981 : :10

Для оценки 3Д - Анимированные скрины
















_________________
Показать сообщения:    

Текущее время: Сегодня 18:21

Часовой пояс: GMT



Вы не можете начинать темы
Вы не можете отвечать на сообщения
Вы не можете редактировать свои сообщения
Вы не можете удалять свои сообщения
Вы не можете голосовать в опросах
Вы не можете прикреплять файлы к сообщениям
Вы не можете скачивать файлы