Важное объявление!
У Нас Все раздачи мультитрекерные, при нуле пиров в релизах, можете смело вставать на закачку!
 
Автор Сообщение

HUNTER

Стаж:
4 года 4 месяца
Сообщений:
56798

Репутация: 101

[+] [-]
Вне форума [Профиль] [ЛС]

Прощальный квартет / Поздний квартет / A Late Quartet
Страна: США
Жанр: драма, музыка
Год выпуска: 2012
Продолжительность: 01:46:09
Перевод: Авторский (одноголосый закадровый) Ю.Сербин
+ Профессиональный (двухголосый закадровый) студия Elrom
Cубтитры: английские
Оригинальная аудиодорожка: английский-Режиссер: Ярон Зильберман / Yaron Zilberman-В ролях: Кэтрин Кинер, Кристофер Уокен, Филип Сеймур Хоффман, Марк Иванир, Имоджен Путс, Мадхур Джаффри, Лираз Чархи, Уоллес Шоун, Памела Куинн,
Бруклин Паркинсон Груп-Описание: История знаменитого на весь мир квартета, который празднует 25-тилетнюю годовщину.-Качество видео: BDRip
Формат видео: MKV
Видео: 1280 x 534 at 23.976 fps, x264@L4.1, ~4300 kbps avg
Аудио: Russian: 48 kHz/24-bit, DTS 5.1, ~1509.00 kbps avg | Ю.Сербин
Аудио: Russian: 48 kHz, AC3 Dolby Digital, 2/0 (L,R) ch, ~192 kbps | студия Elrom
Аудио: English: 48 kHz/24-bit, DTS 5.1, ~1509.00 kbps avg- -Цитата:
Цитата:

  • Сохранены оригинальные главы как на Blu-ray.

MediaInfo

Код:
Format                      : Matroska
Format version              : Version 2
File size                   : 5.56 GiB
Duration                    : 1 h 46 min
Overall bit rate            : 7 503 kb/s
Encoded date                : UTC 2016-08-16 15:28:08
Writing application         : mkvmerge v4.2.0 ('No Talking') сборка от Jul 28 2010 18:38:23
Writing library             : libebml v1.0.0 + libmatroska v1.0.0
Video
ID                          : 1
Format                      : AVC
Format/Info                 : Advanced Video Codec
Format profile              : High@L4.1
Format settings, CABAC      : Yes
Format settings, ReFrames   : 12 frames
Codec ID                    : V_MPEG4/ISO/AVC
Duration                    : 1 h 46 min
Bit rate                    : 4 143 kb/s
Width                       : 1 280 pixels
Height                      : 534 pixels
Display aspect ratio        : 2.40:1
Frame rate mode             : Constant
Frame rate                  : 23.976 (24000/1001) FPS
Color space                 : YUV
Chroma subsampling          : 4:2:0
Bit depth                   : 8 bits
Scan type                   : Progressive
Bits/(Pixel*Frame)          : 0.253
Stream size                 : 3.07 GiB (55%)
Title                       : A Late Quartet 2012
Language                    : English
Default                     : Yes
Forced                      : No
Audio #1
ID                          : 2
Format                      : DTS
Format/Info                 : Digital Theater Systems
Mode                        : 16
Format settings, Endianness : Big
Codec ID                    : A_DTS
Duration                    : 1 h 46 min
Bit rate mode               : Constant
Bit rate                    : 1 509 kb/s
Channel(s)                  : 6 channels
Channel positions           : Front: L C R, Side: L R, LFE
Sampling rate               : 48.0 kHz
Frame rate                  : 93.750 FPS (512 spf)
Bit depth                   : 24 bits
Compression mode            : Lossy
Delay relative to video     : 11 ms
Stream size                 : 1.12 GiB (20%)
Title                       : Одноголосый закадровый, Ю.Сербин
Language                    : Russian
Default                     : Yes
Forced                      : No
Audio #2
ID                          : 3
Format                      : AC-3
Format/Info                 : Audio Coding 3
Mode extension              : CM (complete main)
Format settings, Endianness : Big
Codec ID                    : A_AC3
Duration                    : 1 h 46 min
Bit rate mode               : Constant
Bit rate                    : 192 kb/s
Channel(s)                  : 2 channels
Channel positions           : Front: L R
Sampling rate               : 48.0 kHz
Frame rate                  : 31.250 FPS (1536 spf)
Compression mode            : Lossy
Stream size                 : 146 MiB (3%)
Language                    : Russian
Default                     : No
Forced                      : No
Audio #3
ID                          : 4
Format                      : DTS
Format/Info                 : Digital Theater Systems
Mode                        : 16
Format settings, Endianness : Big
Codec ID                    : A_DTS
Duration                    : 1 h 46 min
Bit rate mode               : Constant
Bit rate                    : 1 509 kb/s
Channel(s)                  : 6 channels
Channel positions           : Front: L C R, Side: L R, LFE
Sampling rate               : 48.0 kHz
Frame rate                  : 93.750 FPS (512 spf)
Bit depth                   : 24 bits
Compression mode            : Lossy
Delay relative to video     : 11 ms
Stream size                 : 1.12 GiB (20%)
Language                    : English
Default                     : No
Forced                      : No
Text
ID                          : 5
Format                      : UTF-8
Codec ID                    : S_TEXT/UTF8
Codec ID/Info               : UTF-8 Plain Text
Language                    : English
Default                     : No
Forced                      : No
Menu
00:00:00.000                : en:00:00:00.000
00:05:24.366                : en:00:05:24.366
00:09:29.360                : en:00:09:29.360
00:15:04.320                : en:00:15:04.320
00:17:35.596                : en:00:17:35.596
00:22:01.487                : en:00:22:01.487
00:28:25.746                : en:00:28:25.746
00:32:28.196                : en:00:32:28.196
00:39:51.306                : en:00:39:51.306
00:42:04.856                : en:00:42:04.856
00:50:18.265                : en:00:50:18.265
00:52:49.083                : en:00:52:49.083
00:58:56.783                : en:00:58:56.783
01:05:37.350                : en:01:05:37.350
01:08:46.914                : en:01:08:46.914
01:13:08.092                : en:01:13:08.092
01:17:22.763                : en:01:17:22.763
01:21:52.074                : en:01:21:52.074
01:23:53.237                : en:01:23:53.237
01:29:13.890                : en:01:29:13.890
01:31:53.925                : en:01:31:53.925
01:36:17.647                : en:01:36:17.647
01:38:56.305                : en:01:38:56.305
01:42:15.129                : en:01:42:15.129

Скриншоты


_________________
Показать сообщения:    

Текущее время: Сегодня 23:27

Часовой пояс: GMT



Вы не можете начинать темы
Вы не можете отвечать на сообщения
Вы не можете редактировать свои сообщения
Вы не можете удалять свои сообщения
Вы не можете голосовать в опросах
Вы не можете прикреплять файлы к сообщениям
Вы не можете скачивать файлы