Важное объявление!
У Нас Все раздачи мультитрекерные, при нуле пиров в релизах, можете смело вставать на закачку!
 
Автор Сообщение

Game

Стаж:
3 года 11 месяцев
Сообщений:
2074

Репутация: 107

[+] [-]
Вне форума [Профиль] [ЛС]

Профиль убийцы / Profile of a Killer
-Страна: США
Жанр: Tриллер
Год выпуска: 2012
Продолжительность: 01:29:53
Перевод: Профессиональный (двухголосый закадровый)
Cубтитры: нет-Режиссер: Кэспиан Тредуэлл-Оуэн / Caspian Tredwell-Owen-В ролях: Джои Поллари, Эмили Фраденбург, Дастин Бут, Кен Мельхиор, Чандра Майклс, Софи Элиз Бристер, Крис Карлсон, Кирстен Грегерсон, Роберт Ларсен-Описание: Холодные воды реки выносят на берег 4 человеческих скелета. Результаты экспертизы свидетельствуют о том, что жертвы убиты недавно. Полиция начинает расследование и приглашает в помощь психолога из ФБР – всем ясно, что «работает» маньяк.-Релиз: СlubTorrent-Сэмпл:http://multi-up.com/933700-Качество видео: SATRip
Формат видео: AVI
Видео: 720x400 (1.80:1), 23.976 fps, XviD build 50, 1793 kbps avg, 0.26 bit/pix
Аудио: 48 kHz, AC3 Dolby Digital, 3/2 (L,C,R,l,r) + LFE ch, 384 kbps

MediaInfo

Profil.ubijcy.avi
Format : AVI
Format/Info : Audio Video Interleave
File size : 1.37 GiB
Duration : 1h 29mn
Overall bit rate : 2 187 Kbps
Writing application : VirtualDubMod 1.5.10.3 | www.virtualdub-fr.org || (build 2550/release)
Writing library : VirtualDubMod build 2550/release
Video #0
ID : 0
Format : MPEG-4 Visual
Codec ID : XVID
Codec ID/Hint : XviD
Duration : 1h 29mn
Bit rate : 214 Mbps
Width : 720 pixels
Height : 400 pixels
Display aspect ratio : 16:9
Frame rate : 23.976 fps
Color space : YUV
Chroma subsampling : 4:2:0
Compression mode : Lossy
Bits/(Pixel*Frame) : 30.984
Stream size : 66.3 GiB
Audio #1
ID : 1
Format : AC-3
Format/Info : Audio Coding 3
Mode extension : CM (complete main)
Codec ID : 2000
Duration : 1h 29mn
Bit rate mode : Constant
Bit rate : 384 Kbps
Channel(s) : 6 channels
Channel positions : Front: L C R, Side: L R, LFE
Sampling rate : 48.0 KHz
Bit depth : 16 bits
Compression mode : Lossy
Delay relative to video : 15ms
Stream size : 50.3 GiB
Alignment : Split accross interleaves
Interleave, duration : 42 ms (1.00 video frame)
Interleave, preload duration : 500 ms

Скриншоты

-
Показать сообщения:    

Текущее время: Сегодня 13:17

Часовой пояс: GMT



Вы не можете начинать темы
Вы не можете отвечать на сообщения
Вы не можете редактировать свои сообщения
Вы не можете удалять свои сообщения
Вы не можете голосовать в опросах
Вы не можете прикреплять файлы к сообщениям
Вы не можете скачивать файлы
Наши партнеры: интернет магазин Ивановского трикотажа textilla.ru