Важное объявление!
У Нас Все раздачи мультитрекерные, при нуле пиров в релизах, можете смело вставать на закачку!
 
Автор Сообщение

HUNTER

Стаж:
4 года 4 месяца
Сообщений:
56734

Репутация: 101

[+] [-]
Вне форума [Профиль] [ЛС]

Профессионал / Killer Elite
«May the Best Man Live»
-
Страна: США, Австралия / Ambience Entertainment, Current Entertainment, International Traders
Жанр: боевик, триллер, криминал
Год выпуска: 2011
Продолжительность: 01:56:42
Перевод 1: Профессиональный (дублированный) лицензия
Перевод 2: Авторский (одноголосый закадровый) А. Ю. Гаврилов
Cубтитры: русские (full+full BD) + английские (full SDH)
Оригинальная аудиодорожка: английский
Режиссёр: Гэри МакКендри / Gary McKendry
В ролях: Джейсон Стэтхэм, Клайв Оуэн, Роберт Де Ниро, Доминик Пёрселл, Аден Янг, Ивонн Страховски, Бен Мендельсон, Адевале Акиннуойе-Агбадже, Дэвид Уайтели, Мэтью Нэйбл, Лейчи Халм, Фирасс Дирани.
Описание: Джейсон Стэтхем в роли профессионального киллера, который по заказу арабского шейха ликвидирует бывших спецназовцев британских ВВС, когда-то участвовавших в военной операции в Омане. Охоту на него открывает глава секретной правительственной спецслужбы, который понимает, что ему придется иметь дело с лучшими из наемных убийц, настоящей элитой киллеров…-Рейтинг
imdb.com: 6.50 (81 450)
kinopoisk.ru: 6.822 (27 918)
MPAA: - лицам до 17 лет обязательно присутствие взрослого-Сэмпл: http://rusfolder.com/39648187-Тип релиза: BDRemux 1080p
Контейнер: MKV
Видео: H.264/AVC, 1920x1080 (16:9), 23.976 fps, 30947 kbps
Аудио 1: AC3 Dolby Digital, 3/2 (L,C,R,l,r) + LFE ch / 48 kHz / 16-bit / 640 kbps (Dub)
Аудио 2: DTS-HD HRA, 5.1 / 48 kHz / 24-bit / 3840 kbps (DTS Core: 5.1 / 48 kHz / 24-bit /1509 kbps) (AVO)
Аудио 3: DTS-HD MA, 5.1 / 48 kHz / 24-bit / 3920 kbps (DTS Core: 5.1 / 48 kHz / 24-bit /1509 kbps) (Eng)
Формат субтитров: softsub (SRT)
-

Благодарность

За перевод А. Гаврилова благодарим пользователей Пиратка:
SavineX, Джосс, _int, Wolf_, therox, dunhill200, lexal, Chistobaev, feldeger, Perusta, feldeger-2, Slimka, pestel, shitman82, milocerd0v, zetrob, Gemini, Kampfer161, audiolubitel, Pain_70, fandvd, Letyoha3, chernila.

MediaInfo

General
Unique ID : 223734364411951294863222522242173260154 (0xA851ABD3D330300289BA0EE46438517A)
Complete name : D:\Killer.Elite.2011.MPEG-4-AVC.BluRay-Remux.1080p.mkv.mkv
Format : Matroska
Format version : Version 2
File size : 32.1 GiB
Duration : 1h 56mn
Overall bit rate mode : Variable
Overall bit rate : 39.4 Mbps
Movie name : Killer Elite 2011
Encoded date : UTC 2014-01-28 19:14:34
Writing application : mkvmerge v5.8.0 ('No Sleep / Pillow') built on Sep 2 2012 15:37:04
Writing library : libebml v1.2.3 + libmatroska v1.3.0
Video
ID : 1
Format : AVC
Format/Info : Advanced Video Codec
Format profile : High@L4.1
Format settings, CABAC : Yes
Format settings, ReFrames : 4 frames
Muxing mode : Container profile=Unknown@0.0
Codec ID : V_MPEG4/ISO/AVC
Duration : 1h 56mn
Bit rate mode : Variable
Bit rate : 32.5 Mbps
Maximum bit rate : 35.0 Mbps
Width : 1 920 pixels
Height : 1 080 pixels
Display aspect ratio : 16:9
Frame rate mode : Constant
Frame rate : 23.976 fps
Color space : YUV
Chroma subsampling : 4:2:0
Bit depth : 8 bits
Scan type : Progressive
Bits/(Pixel*Frame) : 0.654
Stream size : 26.5 GiB (83%)
Title : Killer.Elite.2011.MPEG-4-AVC.BluRay-Remux.1080p
Language : English
Default : No
Forced : No
Color primaries : BT.709
Transfer characteristics : BT.709
Matrix coefficients : BT.709
Audio #1
ID : 2
Format : AC-3
Format/Info : Audio Coding 3
Mode extension : CM (complete main)
Format settings, Endianness : Big
Codec ID : A_AC3
Duration : 1h 56mn
Bit rate mode : Constant
Bit rate : 640 Kbps
Channel(s) : 6 channels
Channel positions : Front: L C R, Side: L R, LFE
Sampling rate : 48.0 KHz
Bit depth : 16 bits
Compression mode : Lossy
Stream size : 534 MiB (2%)
Title : Dub AC3 5.1 @ 640 kbps
Language : Russian
Default : Yes
Forced : Yes
Audio #2
ID : 3
Format : DTS
Format/Info : Digital Theater Systems
Format profile : HRA / Core
Codec ID : A_DTS
Duration : 1h 56mn
Bit rate mode : Constant
Bit rate : 3 841 Kbps / 1 510 Kbps
Channel(s) : 6 channels
Channel positions : Front: L C R, Side: L R, LFE
Sampling rate : 48.0 KHz
Bit depth : 24 bits
Compression mode : Lossy
Stream size : 3.13 GiB (10%)
Title : AVO Gavrilov DTS-HD HRA 5.1 @ 3840 kbps
Language : Russian
Default : No
Forced : No
Audio #3
ID : 4
Format : DTS
Format/Info : Digital Theater Systems
Format profile : MA / Core
Codec ID : A_DTS
Duration : 1h 56mn
Bit rate mode : Variable
Bit rate : 1 576 Kbps / 1 510 Kbps
Channel(s) : 6 channels
Channel positions : Front: L C R, Side: L R, LFE
Sampling rate : 48.0 KHz
Bit depth : 24 bits
Compression mode : Lossless / Lossy
Title : Original DTS-HD MA 5.1 @ 3920 kbps
Language : English
Default : No
Forced : No
Text #1
ID : 5
Format : UTF-8
Codec ID : S_TEXT/UTF8
Codec ID/Info : UTF-8 Plain Text
Title : Full
Language : Russian
Default : No
Forced : No
Text #2
ID : 6
Format : UTF-8
Codec ID : S_TEXT/UTF8
Codec ID/Info : UTF-8 Plain Text
Title : Full BD
Language : Russian
Default : No
Forced : No
Text #3
ID : 7
Format : UTF-8
Codec ID : S_TEXT/UTF8
Codec ID/Info : UTF-8 Plain Text
Title : Full SDH
Language : English
Default : No
Forced : No
Menu
00:00:00.000 : en:Chapter 1
00:06:11.580 : en:Chapter 2
00:12:40.385 : en:Chapter 3
00:18:18.222 : en:Chapter 4
00:24:33.389 : en:Chapter 5
00:30:06.972 : en:Chapter 6
00:36:41.324 : en:Chapter 7
00:41:01.417 : en:Chapter 8
00:46:36.293 : en:Chapter 9
00:51:37.052 : en:Chapter 10
00:57:32.532 : en:Chapter 11
01:02:14.272 : en:Chapter 12
01:07:04.896 : en:Chapter 13
01:12:39.981 : en:Chapter 14
01:20:23.652 : en:Chapter 15
01:26:27.474 : en:Chapter 16
01:32:30.628 : en:Chapter 17
01:41:02.807 : en:Chapter 18
01:46:07.278 : en:Chapter 19
01:50:26.203 : en:Chapter 20

Скриншоты


_________________
Показать сообщения:    

Текущее время: Сегодня 06:52

Часовой пояс: GMT



Вы не можете начинать темы
Вы не можете отвечать на сообщения
Вы не можете редактировать свои сообщения
Вы не можете удалять свои сообщения
Вы не можете голосовать в опросах
Вы не можете прикреплять файлы к сообщениям
Вы не можете скачивать файлы