Важное объявление!
У Нас Все раздачи мультитрекерные, при нуле пиров в релизах, можете смело вставать на закачку!
 
Автор Сообщение

HUNTER

Стаж:
4 года 4 месяца
Сообщений:
56733

Репутация: 101

[+] [-]
Вне форума [Профиль] [ЛС]

Противостояние / The One

Год выпуска: 2001
Страна: США
Жанр: фантастика, боевик, триллер
Продолжительность: 01:28:29
Перевод: Профессиональный (многоголосый закадровый)
Cубтитры: Русские (встроенные, отключаемые)
Режиссер: Джеймс Вонг
В ролях: Джет Ли / Jet Li (Gabe Law / Gabriel Yulaw / Lawless, $ 7 500 000 ), Джейсон Стэйтем / Jason Statham (MVA Agent Evan Funsch), Карла Гуджино / Carla Gugino (T.K. Law / Massie Walsh), Делрой Линдо / Delroy Lindo (MVA Agent Harry Roedecker / Gas Station Attendant), Джеймс Моррисон / James Morrison (LAPD Officer Bobby Aldrich / «A» World Inmate #1), Дилан Бруно / Dylan Bruno (Yates), Ричард Стейнметц / Richard Steinmetz (D'Antoni), Стив Рэнкин / Steve Rankin (MVA Supervisor)

Описание: Что делать, если твой мир рушится, когда в него вторгается безжалостный пришелец из параллельных миров? Стремясь стать сверхчеловеком, агент Межпространственного Бюро Расследований Габриель Юло совершает головокружительное сафари по параллельным мирам, охотясь за своими двойниками.Силы его растут с каждой новой жертвой, их жизненная энергия аккумулируется в нем, наделяя его невероятными способностями. Никто не знает, что случится с хрупким равновесием вселенных, если Габриель достигнет своей цели — уничтожить всех двойников. Его мечта уже почти становится реальностью, когда на пути Юло становится Гэйб — полицейский из Лос-Анджелеса…
Качество: BDRip
Формат: MKV
Видео кодек: AVC
Аудио кодек: AC3
Видео: 1920x800 (2.40:1), 23.976 fps, AVC, 6 435 Kbps
Аудио: AC3, 640 Kbps, 48.0 KHz, 6 ch

МедиаИнфо

Код: copyText_writeLink('this.parentNode.parentNode.nextSibling.nextSibling'); General
Complete name : Protivostoyanie.2001.BDRip.1080p.mkv
Format : Matroska
File size : 4.37 GiB
Duration : 1h 28mn
Overall bit rate : 7 064 Kbps
Movie name : Противостояние (2001) BDRip (1080p)
Encoded date : UTC 2012-11-19 12:54:33
Writing application : mkvmerge v5.8.0 ('No Sleep / Pillow') built on Sep 2 2012 15:37:04
Writing library : libebml v1.2.3 + libmatroska v1.3.0
Video
ID : 1
Format : AVC
Format/Info : Advanced Video Codec
Format profile : [url=mailto:High@L4.1]High@L4.1[/url]
Format settings, CABAC : Yes
Format settings, ReFrames : 5 frames
Muxing mode : Container profile=Unknown@4.1
Codec ID : V_MPEG4/ISO/AVC
Duration : 1h 28mn
Bit rate : 6 435 Kbps
Width : 1 920 pixels
Height : 800 pixels
Display aspect ratio : 2.40:1
Frame rate : 23.976 fps
Color space : YUV
Chroma subsampling : 4:2:0
Bit depth : 8 bits
Scan type : Progressive
Bits/(Pixel*Frame) : 0.175
Stream size : 3.88 GiB (89%)
Title : Release by Alex260680
Writing library : x264 core 129 r2230 1cffe9f
Encoding settings : cabac=1 / ref=5 / deblock=1:0:0 / analyse=0x3:0x133 / me=umh / subme=11 / psy=1 / psy_rd=1.00:0.10 / mixed_ref=1 / me_range=32 / chroma_me=1 / trellis=2 / 8x8dct=1 / cqm=0 / deadzone=21,11 / fast_pskip=0 / chroma_qp_offset=-3 / threads=12 / lookahead_threads=2 / sliced_threads=0 / nr=0 / decimate=0 / interlaced=0 / bluray_compat=0 / constrained_intra=0 / bframes=5 / b_pyramid=2 / b_adapt=2 / b_bias=0 / direct=3 / weightb=1 / open_gop=0 / weightp=2 / keyint=240 / keyint_min=23 / scenecut=40 / intra_refresh=0 / rc=2pass / mbtree=0 / bitrate=6435 / ratetol=1.0 / qcomp=0.60 / qpmin=0 / qpmax=69 / qpstep=4 / cplxblur=20.0 / qblur=0.5 / ip_ratio=1.40 / pb_ratio=1.30 / aq=1:0.80
Audio
ID : 2
Format : AC-3
Format/Info : Audio Coding 3
Mode extension : CM (complete main)
Codec ID : A_AC3
Duration : 1h 28mn
Bit rate mode : Constant
Bit rate : 640 Kbps
Channel(s) : 6 channels
Channel positions : Front: L C R, Side: L R, LFE
Sampling rate : 48.0 KHz
Bit depth : 16 bits
Stream size : 405 MiB (9%)
Title : MVO (Blu-ray CEE)
Language : Russian
Text
ID : 3
Format : UTF-8
Codec ID : S_TEXT/UTF8
Codec ID/Info : UTF-8 Plain Text
Language : Russian
Menu
00:00:00.000 : en:Chapter1
00:04:14.587 : en:Chapter2
00:08:28.591 : en:Chapter3
00:14:19.108 : en:Chapter4
00:18:58.804 : en:Chapter5
00:24:36.141 : en:Chapter6
00:32:51.177 : en:Chapter7
00:38:36.272 : en:Chapter8
00:45:15.379 : en:Chapter9
00:49:59.830 : en:Chapter10
00:55:28.074 : en:Chapter11
00:58:35.845 : en:Chapter12
01:03:10.620 : en:Chapter13
01:06:21.227 : en:Chapter14
01:13:26.110 : en:Chapter15
01:17:42.741 : en:Chapter16
01:27:17.523 : en:Chapter17

Создатели фильма

Сценарий: Глен Морган, Джеймс Вонг
Продюсер: Стив Чэсмэн, Глен Морган, Чарльз Невирт, ...
Оператор: Роберт МакЛаклен
Композитор: Тревор Рэбин
Художник: Дэвид Л. Снайдер, Пол Сонски, Криси Карвонидес-Душенко, ...
Монтаж: Джеймс Коблентц

Бюджет, сборы, премьера

Бюджет: $49 000 000
Сборы в США: $43 905 746
Сборы в мире: + $28 783 380 = $72 689 126
Зрители: США 8.15 млн , Франция 489.2 тыс. , Испания 478.5 тыс.
Премьера (мир): 2 ноября 2001, ...
Премьера (РФ): 27 декабря 2001, «Каскад»
Релиз на Blu-Ray: 11 июня 2009, «Columbia/Sony», ...
Рейтинг MPAA: Детям до 13 лет просмотр не желателен

Рейтинг

Рейтинг:

Скриншоты


_________________
Показать сообщения:    

Текущее время: Сегодня 23:20

Часовой пояс: GMT



Вы не можете начинать темы
Вы не можете отвечать на сообщения
Вы не можете редактировать свои сообщения
Вы не можете удалять свои сообщения
Вы не можете голосовать в опросах
Вы не можете прикреплять файлы к сообщениям
Вы не можете скачивать файлы