Важное объявление!
У Нас Все раздачи мультитрекерные, при нуле пиров в релизах, можете смело вставать на закачку!
 
Автор Сообщение

HUNTER

Стаж:
4 года 4 месяца
Сообщений:
56842

Репутация: 101

[+] [-]
Вне форума [Профиль] [ЛС]

Простая девчонка- -Страна: Россия
Жанр: мелодрама
Год выпуска: 2015
Производство: «ООО "Тесей Продакшн", МЕГА Продакшн»
Продолжительность: 01:42:31
Оригинальная аудиодорожка: русский
Cубтитры: нет-Режиссер: Максим Бриус-В ролях:
Анастасия Стежко, Станислав Эрдлей, Борис Хвошнянский, Александр Абрамович, Светлана Никифорова,
Галина Чернобаева, Инна Коляда, Виктор Васильев (II), Ольга Сизова, Светлана Клименко, Константин Задворный-Описание:
Алена Шелестова живет и работает в большом городе. Несмотря на то, что Алена еще очень молода, она занята серьезным делом — пишет кандидатскую по истории стекольного производства, а заодно организует выставку старинных изделий из стекла.
Однажды, когда Алена едет в родной город навестить отца, она случайно знакомится с Кириллом — типичным представителем «золотой молодежи». Обаятельный и симпатичный молодой человек ведет в газете колонку светской хроники и проводит жизнь в развлечениях, растрачивая деньги своего старшего брата, Ивана Томилина.
Несмотря на разницу в жизненных приоритетах, между Аленой и Кириллом возникает симпатия. Увлекшись Аленой, Кирилл забывает, что уже обещал жениться на дочери мэра (которая от него без ума). Однако этот брак настолько важен для Ивана Томилина, что тот сам готов приударить за Аленой, лишь бы не лишиться выгодного родства. Иван решает переключить на себя внимание Алены.-Возраст: 16+-Качество: HDTV (1080i)
Формат: TS
Видео кодек: AVC
Аудио кодек: MPEG Audio

Видео: AVC, 1920 х 1080 (16:9), 25,000 кадр/сек, 7 871 Кбит/сек, 0.152 bit/pixel
Аудио: MPEG Audio 2, 48000 Hz, 192 Kbps, 2 канала
-

MediaInfo

General
ID : 1 (0x1)
Complete name : D:\Раздачи\Простая девчонка HDTV (1080i)\Простая девчонка HDTV (1080i).ts
Format : MPEG-TS
File size : 6.08 GiB
Duration : 1h 42mn
Overall bit rate mode : Variable
Overall bit rate : 8 484 Kbps
Video
ID : 2911 (0xB5F)
Menu ID : 1009 (0x3F1)
Format : AVC
Format/Info : Advanced Video Codec
Format profile : High@L4
Format settings, CABAC : Yes
Format settings, ReFrames : 4 frames
Codec ID : 27
Duration : 1h 42mn
Bit rate : 7 871 Kbps
Width : 1 920 pixels
Height : 1 080 pixels
Display aspect ratio : 16:9
Frame rate : 25.000 fps
Color space : YUV
Chroma subsampling : 4:2:0
Bit depth : 8 bits
Scan type : MBAFF
Scan type, store method : Interleaved fields
Scan order : Top Field First
Bits/(Pixel*Frame) : 0.152
Stream size : 5.64 GiB (93%)
Audio
ID : 2912 (0xB60)
Menu ID : 1009 (0x3F1)
Format : MPEG Audio
Format version : Version 1
Format profile : Layer 2
Codec ID : 3
Duration : 1h 42mn
Bit rate mode : Constant
Bit rate : 192 Kbps
Channel(s) : 2 channels
Sampling rate : 48.0 KHz
Compression mode : Lossy
Stream size : 141 MiB (2%)
Language : Russian

Скриншоты


-Раздаю до первых 5-ти скачавших, на раздачи не возвращаюсь...-

_________________
Показать сообщения:    

Текущее время: Сегодня 09:45

Часовой пояс: GMT



Вы не можете начинать темы
Вы не можете отвечать на сообщения
Вы не можете редактировать свои сообщения
Вы не можете удалять свои сообщения
Вы не можете голосовать в опросах
Вы не можете прикреплять файлы к сообщениям
Вы не можете скачивать файлы