Важное объявление!
У Нас Все раздачи мультитрекерные, при нуле пиров в релизах, можете смело вставать на закачку!
 
Автор Сообщение

HUNTER

Стаж:
4 года 4 месяца
Сообщений:
56809

Репутация: 101

[+] [-]
Вне форума [Профиль] [ЛС]

Прометей / Prometheus-
Год выпуска: 2012
Страна: США, Великобритания
Жанр: фантастика, триллер, приключения
Продолжительность: 02:03:46
Перевод: Профессиональный (дублированный)
Русские субтитры: есть
Оригинальная аудиодорожка: английский-Режиссер: Ридли Скотт / Ridley Scott
В ролях: Нуми Рапас, Майкл Фассбендер, Шарлиз Терон, Идрис Эльба, Гай Пирс, Логан Маршалл-Грин, Шон Харрис, Рейф Сполл, Иман Эллиотт, Бенедикт Вонг.
Описание: 2093 год. Космическое научно-исследовательское судно Прометей прибывает к пункту назначения после двухлетнего полета. Когда команда корабля выходит из анабиоза, то они узнают цель своей экспедиции. Так как были найдены свидетельства о посещении нашей планеты древними инопланетными цивилизациями, то космическая экспедиция отправляется на поиски древних прародителей. После высадки на одном из спутников планеты газового гиганта, команда обнаруживает целый ряд древних сооружений искусственного происхождения. Внутри они находят голограмму, на которой зафиксировано, как человекоподобные пришельцы пытаются спастись от какой-то неизвестной опасности. Ученые находят тело инопланетянина и забирают его на Прометей для исследований.
-
  • Формат 3D Half OverUnder | Вертикальная анаморфная стереопара-Качество: BDRip-AVC | Контейнер: MKV | Рип: HDMaNiAcS
    Видео: 1920x1080 (16:9), 23.976 fps, x264@L4.1 ~14500 kbps
    Аудио 1: Russian 48 kHz, AC3, 3/2 (L,C,R,l,r) + LFE ch, 640.00 kbps | BD EUR
    Аудио 2: Ukrainian 48 kHz, AC3, 3/2 (L,C,R,l,r) + LFE ch, 448.00 kbps | BD EUR
    Аудио 3: English 48 kHz, AC3, 3/2 (L,C,R,l,r) + LFE ch, 640.00 kbps | BD USA
    Субтитры: русские форсированные и полные, украинские форсированные и полные, английские полные

    Инфо

    Format : Matroska
    File size : 14.0 GiB
    Duration : 2h 3mn
    Overall bit rate : 16.2 Mbps
    Movie name : Prometheus 3D (2012) by HDMaNiAcS
    Encoded date : UTC 2010-02-22 21:41:31
    Writing application : mkvmerge v5.9.0 ('On The Loose') built on Dec 9 2012 15:37:01
    Writing library : libebml v1.3.0 + libmatroska v1.4.0
    Video
    ID : 1
    Format : AVC
    Format/Info : Advanced Video Codec
    Format profile : High@L4.1
    Format settings, CABAC : Yes
    Format settings, ReFrames : 4 frames
    Codec ID : V_MPEG4/ISO/AVC
    Duration : 2h 3mn
    Bit rate : 14.5 Mbps
    Width : 1 920 pixels
    Height : 1 080 pixels
    Display aspect ratio : 16:9
    Frame rate : 23.976 fps
    Color space : YUV
    Chroma subsampling : 4:2:0
    Bit depth : 8 bits
    Scan type : Progressive
    Bits/(Pixel*Frame) : 0.292
    Stream size : 12.3 GiB (87%)
    Title : Prometheus 3D (2012)
    Writing library : x264 core 128 r2216 198a7ea
    Encoding settings : cabac=1 / ref=4 / deblock=1:-3:-3 / analyse=0x3:0x113 / me=tesa / subme=10 / psy=1 / psy_rd=1.00:0.00 / mixed_ref=1 / me_range=32 / chroma_me=1 / trellis=2 / 8x8dct=1 / cqm=0 / deadzone=21,11 / fast_pskip=1 / chroma_qp_offset=-2 / threads=12 / lookahead_threads=2 / sliced_threads=0 / nr=0 / decimate=0 / interlaced=0 / bluray_compat=0 / constrained_intra=0 / bframes=8 / b_pyramid=2 / b_adapt=2 / b_bias=0 / direct=3 / weightb=1 / open_gop=0 / weightp=2 / keyint=250 / keyint_min=23 / scenecut=40 / intra_refresh=0 / rc=2pass / mbtree=0 / bitrate=14500 / ratetol=1.0 / qcomp=0.65 / qpmin=5 / qpmax=65 / qpstep=4 / cplxblur=20.0 / qblur=0.5 / ip_ratio=1.35 / pb_ratio=1.25 / aq=2:0.80
    Language : English
    Audio #1
    ID : 2
    Format : AC-3
    Format/Info : Audio Coding 3
    Mode extension : CM (complete main)
    Codec ID : A_AC3
    Duration : 2h 3mn
    Bit rate mode : Constant
    Bit rate : 640 Kbps
    Channel(s) : 6 channels
    Channel positions : Front: L C R, Side: L R, LFE
    Sampling rate : 48.0 KHz
    Bit depth : 16 bits
    Stream size : 567 MiB (4%)
    Title : AC3 / 5.1 ch / 640 kbps / Русский дубляж BD EUR
    Language : Russian
    Audio #2
    ID : 3
    Format : AC-3
    Format/Info : Audio Coding 3
    Mode extension : CM (complete main)
    Codec ID : A_AC3
    Duration : 2h 3mn
    Bit rate mode : Constant
    Bit rate : 448 Kbps
    Channel(s) : 6 channels
    Channel positions : Front: L C R, Side: L R, LFE
    Sampling rate : 48.0 KHz
    Bit depth : 16 bits
    Stream size : 397 MiB (3%)
    Title : AC3 / 5.1 ch / 448 kbps / Украинский дубляж BD EUR
    Language : Ukrainian
    Audio #3
    ID : 4
    Format : AC-3
    Format/Info : Audio Coding 3
    Mode extension : CM (complete main)
    Codec ID : A_AC3
    Duration : 2h 3mn
    Bit rate mode : Constant
    Bit rate : 640 Kbps
    Channel(s) : 6 channels
    Channel positions : Front: L C R, Side: L R, LFE
    Sampling rate : 48.0 KHz
    Bit depth : 16 bits
    Stream size : 567 MiB (4%)
    Title : AC3 / 5.1 ch / 640 kbps / Английский original BD EUR
    Language : English
    Text #1
    ID : 5
    Format : UTF-8
    Codec ID : S_TEXT/UTF8
    Codec ID/Info : UTF-8 Plain Text
    Title : Forced
    Language : Russian
    Text #2
    ID : 6
    Format : UTF-8
    Codec ID : S_TEXT/UTF8
    Codec ID/Info : UTF-8 Plain Text
    Title : Full BD EUR
    Language : Russian
    Text #3
    ID : 7
    Format : UTF-8
    Codec ID : S_TEXT/UTF8
    Codec ID/Info : UTF-8 Plain Text
    Title : Full Voronine
    Language : Russian
    Text #4
    ID : 8
    Format : UTF-8
    Codec ID : S_TEXT/UTF8
    Codec ID/Info : UTF-8 Plain Text
    Title : Комментарии автора Джона Спэйтса
    Language : Russian
    Text #5
    ID : 9
    Format : UTF-8
    Codec ID : S_TEXT/UTF8
    Codec ID/Info : UTF-8 Plain Text
    Title : Комментарии режиссера Ридли Скотта
    Language : Russian
    Text #6
    ID : 10
    Format : UTF-8
    Codec ID : S_TEXT/UTF8
    Codec ID/Info : UTF-8 Plain Text
    Title : Forced
    Language : Ukrainian
    Text #7
    ID : 11
    Format : UTF-8
    Codec ID : S_TEXT/UTF8
    Codec ID/Info : UTF-8 Plain Text
    Title : Full
    Language : Ukrainian
    Text #8
    ID : 12
    Format : UTF-8
    Codec ID : S_TEXT/UTF8
    Codec ID/Info : UTF-8 Plain Text
    Title : Full 1
    Language : English
    Text #9
    ID : 13
    Format : UTF-8
    Codec ID : S_TEXT/UTF8
    Codec ID/Info : UTF-8 Plain Text
    Title : Full 2
    Language : English
    Text #10
    ID : 14
    Format : UTF-8
    Codec ID : S_TEXT/UTF8
    Codec ID/Info : UTF-8 Plain Text
    Title : Full (i)
    Language : English
    Text #11
    ID : 15
    Format : UTF-8
    Codec ID : S_TEXT/UTF8
    Codec ID/Info : UTF-8 Plain Text
    Title : SDH
    Language : English
    Menu
    00:00:00.000 : en:00:00:00.000
    00:05:13.146 : en:00:05:13.146
    00:07:44.881 : en:00:07:44.881
    00:11:31.524 : en:00:11:31.524
    00:15:09.784 : en:00:15:09.784
    00:20:04.912 : en:00:20:04.912
    00:22:32.810 : en:00:22:32.810
    00:27:43.120 : en:00:27:43.120
    00:31:57.833 : en:00:31:57.833
    00:34:10.840 : en:00:34:10.840
    00:37:53.229 : en:00:37:53.229
    00:40:45.360 : en:00:40:45.360
    00:45:49.330 : en:00:45:49.330
    00:48:47.925 : en:00:48:47.925
    00:50:23.062 : en:00:50:23.062
    00:53:56.400 : en:00:53:56.400
    00:56:32.222 : en:00:56:32.222
    00:59:31.610 : en:00:59:31.610
    01:01:29.185 : en:01:01:29.185
    01:04:17.562 : en:01:04:17.562
    01:06:01.457 : en:01:06:01.457
    01:08:57.884 : en:01:08:57.884
    01:11:13.519 : en:01:11:13.519
    01:15:10.631 : en:01:15:10.631
    01:17:06.038 : en:01:17:06.038
    01:25:02.306 : en:01:25:02.306
    01:27:09.349 : en:01:27:09.349
    01:30:10.363 : en:01:30:10.363
    01:32:43.725 : en:01:32:43.725
    01:35:23.134 : en:01:35:23.134
    01:37:46.861 : en:01:37:46.861
    01:40:46.374 : en:01:40:46.374
    01:43:46.220 : en:01:43:46.220
    01:48:28.794 : en:01:48:28.794
    01:52:08.096 : en:01:52:08.096
    01:58:06.288 : en:01:58:06.288

    Скриншоты


  • _________________
    Показать сообщения:    

    Текущее время: Сегодня 18:22

    Часовой пояс: GMT



    Вы не можете начинать темы
    Вы не можете отвечать на сообщения
    Вы не можете редактировать свои сообщения
    Вы не можете удалять свои сообщения
    Вы не можете голосовать в опросах
    Вы не можете прикреплять файлы к сообщениям
    Вы не можете скачивать файлы