Важное объявление!
У Нас Все раздачи мультитрекерные, при нуле пиров в релизах, можете смело вставать на закачку!
 
Автор Сообщение

HUNTER

Стаж:
4 года 4 месяца
Сообщений:
56842

Репутация: 101

[+] [-]
Вне форума [Профиль] [ЛС]

Проклятие Франкенштейна
The Curse of Frankenstein--"Существо, созданное человеком и забытое природой"-
Страна: Великобритания
Жанр: ужасы, фантастика
Год выпуска: 1957
Продолжительность: 1:23:11-Перевод: Одноголосый закадровый #Oneinchnales
Субтитры: английские
Оригинальная аудиодорожка: английский-Режиссер: Теренс Фишер (Terence Fisher)
В ролях:
Питер Кушинг (Виктор Франкенштейн),
Хейзел Корт (Элизабет),
Роберт Эркарт (Пол Кремпе),
Кристофер Ли (Существо),
Мелвин Хейес (Юный Виктор),
Валери Гонт (Жюстина),
Пол Хардмут (Профессор Бернштейн),
Ноэль Худ (Тётя),
и другие-Описание: Виктор Франкенштейн одержим идеей создания нового, совершенного человека из мёртвой плоти и ради своей цели готов на любое преступление..Oneinchnales)-Доп. информация: Немеркнущая классика готик-хоррора студии "Хаммер" с моим переводом на основе рипа The.Curse.of.Frankenstein.1957.720p.BluRay.x264-UNVEiL [PublicHD], гуляющего в сети.

Перлы от Кинопоиска

Приговоренный к смерти, барон Франкенштейн настойчиво требует священника и рассказывает ему свою историю. После смерти своей матери, когда он был еще юношей, так как отца он потерял в десятилетнем возрасте, он унаследовал состояние своих родителей и обосновался в швейцарской деревушке, устроившись работать к профессору Крумпу, чтобы тот передал ему свои знания в области биологии. Вместе они проводили многочисленные эксперименты и однажды им удалось оживить мертвую собаку. Став взрослым, Франкенштейн уже знал, что его жизнь будет посвящена науке. У него появилась амбициозная идея создать живое существо из органов, взятых у трупов…
-
Качество видео: BDRip
Формат видео: MKV
Видео: 1200x720 (5:3), 24 fps, V_MPEG4/ISO/AVC, 5002 kbps avg, 0.241 bit/pixel
Аудио 1: 48 kHz, AC3, 2 ch, СBR 640.00 kbps (русский VO #Oneinchnales)
Аудио 2: 48 kHz, AC3, 2 ch, СBR 640.00 kbps (оригинальная английская дорожка)
Формат субтитров: softsub (SRT)

MediaInfo

Общее
Уникальный идентификатор : 217772843397394935947725935228452221119 (0xA3D586260017B6289BCAA7C9212230BF)
Полное имя : C:\Users\Александр\Downloads\Мои торренты\Грузится\65.Procliatie.Frankenshteina.(The.Curse.of.Frankenstein,1957).BDRip.720p.Dual.AC3_Oneinchnales.mkv
Формат : Matroska
Версия формата : Version 4 / Version 2
Размер файла : 3,65 Гбайт
Продолжительность : 1 ч. 23 м.
Общий поток : 6284 Кбит/сек
Дата кодирования : UTC 2015-11-28 18:21:34
Программа кодирования : mkvmerge v8.5.2 ('Crosses') 64bit
Библиотека кодирования : libebml v1.3.3 + libmatroska v1.4.4
DURATION : 01:20:21.499000000
NUMBER_OF_FRAMES : 820
NUMBER_OF_BYTES : 33657
_STATISTICS_WRITING_APP : mkvmerge v8.5.2 ('Crosses') 64bit
_STATISTICS_WRITING_DATE_UTC : 2015-11-28 18:21:34
_STATISTICS_TAGS : BPS DURATION NUMBER_OF_FRAMES NUMBER_OF_BYTES
Видео
Идентификатор : 1
Формат : AVC
Формат/Информация : Advanced Video Codec
Профиль формата : High@L4.1
Параметр CABAC формата : Да
Параметр ReFrames формата : 5 кадров
Идентификатор кодека : V_MPEG4/ISO/AVC
Продолжительность : 1 ч. 23 м.
Битрейт : 5002 Кбит/сек
Ширина : 1200 пикселей
Высота : 720 пикселей
Соотношение сторон : 5:3
Режим частоты кадров : Постоянный
Частота кадров : 24,000 кадра/сек
Цветовое пространство : YUV
Субдискретизация насыщенности : 4:2:0
Битовая глубина : 8 бит
Тип развёртки : Прогрессивная
Бит/(Пиксели*Кадры) : 0.241
Размер потока : 2,84 Гбайт (78%)
Библиотека кодирования : x264 core 125 r2200 999b753
Настройки программы : cabac=1 / ref=5 / deblock=1:0:0 / analyse=0x3:0x133 / me=umh / subme=7 / psy=1 / psy_rd=1.00:0.00 / mixed_ref=1 / me_range=16 / chroma_me=1 / trellis=1 / 8x8dct=1 / cqm=0 / deadzone=21,11 / fast_pskip=0 / chroma_qp_offset=-2 / threads=24 / lookahead_threads=4 / sliced_threads=0 / nr=0 / decimate=1 / interlaced=0 / bluray_compat=0 / constrained_intra=0 / bframes=3 / b_pyramid=2 / b_adapt=1 / b_bias=0 / direct=3 / weightb=1 / open_gop=0 / weightp=2 / keyint=240 / keyint_min=24 / scenecut=40 / intra_refresh=0 / rc_lookahead=40 / rc=2pass / mbtree=1 / bitrate=5002 / ratetol=1.0 / qcomp=0.60 / qpmin=10 / qpmax=51 / qpstep=4 / cplxblur=20.0 / qblur=0.5 / ip_ratio=1.40 / aq=1:1.00
Язык : Russian
Default : Да
Forced : Нет
DURATION : 01:23:11.667000000
NUMBER_OF_FRAMES : 119800
NUMBER_OF_BYTES : 3120956139
_STATISTICS_WRITING_APP : mkvmerge v8.5.2 ('Crosses') 64bit
_STATISTICS_WRITING_DATE_UTC : 2015-11-28 18:21:34
_STATISTICS_TAGS : BPS DURATION NUMBER_OF_FRAMES NUMBER_OF_BYTES
Аудио #1
Идентификатор : 2
Формат : AC-3
Формат/Информация : Audio Coding 3
Расширение режима : CM (complete main)
Параметр Endianness формата : Big
Идентификатор кодека : A_AC3
Продолжительность : 1 ч. 23 м.
Вид битрейта : Постоянный
Битрейт : 640 Кбит/сек
Каналы : 2 канала
Расположение каналов : Front: L R
Частота : 48,0 КГц
Метод сжатия : С потерями
Размер потока : 381 Мбайт (10%)
Заголовок : VO Oneinchnales
Язык : Russian
Default : Да
Forced : Да
Аудио #2
Идентификатор : 3
Формат : AC-3
Формат/Информация : Audio Coding 3
Расширение режима : CM (complete main)
Параметр Endianness формата : Big
Идентификатор кодека : A_AC3
Продолжительность : 1 ч. 23 м.
Вид битрейта : Постоянный
Битрейт : 640 Кбит/сек
Каналы : 2 канала
Расположение каналов : Front: L R
Частота : 48,0 КГц
Метод сжатия : С потерями
Размер потока : 381 Мбайт (10%)
Заголовок : Original
Язык : English
Default : Нет
Forced : Нет
Текст
Идентификатор : 4
Формат : UTF-8
Идентификатор кодека : S_TEXT/UTF8
Идентификатор кодека/Информация : UTF-8 Plain Text
Заголовок : Subtitles original
Язык : English
Default : Нет
Forced : Нет
Мои раздачи раритетов Хаммер
Последняя страница (1952)
Четырехсторонний треугольник (1953)
Эксперимент Куотермасса (1955)
Проклятие Франкенштейна (1957)
Дыхательная трубка (1958)
Вчерашний враг (1959)
Человек, обманувший смерть (1959)
Адский город (1960)
Два лица доктора Джекила (1960)
Тень кошки (1961)
Проклятие оборотня (1961)
Наличные по требованию (1961)
Призрак оперы (1962)
Проклятые (1963)
Поцелуй вампира (1963)
Параноик (1963)
Дьявольский пиратский корабль (1964)
Ночной кошмар (1964)
Ужас Франкенштейна (1970)
Доктор Джекилл и сестра Хайд (1971)
Страх в ночи (1972)
Звёзды "Хаммер": Интервью с Вероникой Карлсон
Мир студии Хаммер (1990) Ночь орла (1962)
Ужасная тайна доктора Хичкока (1962)
Колдовство (1964)
Пляска смерти (1964)
Длинные волосы смерти (1964)
Любовники из могилы (1965)
Череп (1965)
Око дьявола (1966)
Кровавый судья (1970)
И наступит тьма (1970)
Загадка "Плетёного человека" (2001)
История ужасов с Марком Гейтиссом (2010) Отец Браун (1954)
Ну и делёж! (1961)
Продолжаем кричать! (1966)
[url=http://rutracker.org/forum/tracker.php?nm=Бал%20вампиров%20(1967)%20Oneinchnales] Бал вампиров (1967)[/url] Свистни по ветру (1961)
Фанни (1961)Раздача наугад:

Кровавый судья (1970)Релиз и качество:
-- Все материалы оригинальные © Ссылка на авторство обязательна

_________________
Показать сообщения:    

Текущее время: Сегодня 20:01

Часовой пояс: GMT



Вы не можете начинать темы
Вы не можете отвечать на сообщения
Вы не можете редактировать свои сообщения
Вы не можете удалять свои сообщения
Вы не можете голосовать в опросах
Вы не можете прикреплять файлы к сообщениям
Вы не можете скачивать файлы
Наши партнеры: интернет магазин Ивановского трикотажа textilla.ru