Важное объявление!
У Нас Все раздачи мультитрекерные, при нуле пиров в релизах, можете смело вставать на закачку!
 
Автор Сообщение

димитри37

Стаж:
3 года 9 месяцев
Сообщений:
1237

Репутация: 127

[+] [-]
Вне форума [Профиль] [ЛС]

Проклятие моей матери / The Guilt Trip
Год выпуска: 2012
Производство: США / Paramount Pictures
Жанр: Комедия, драма
Продолжительность: 01:35:37
Перевод: Профессиональный (многоголосый закадровый)
Субтитры: Английские (полные + SDH) |отключаемые|
Навигация по главам: Есть
Бюджет: $40 000 000
Режиссер: Энн Флетчер / Anne Fletcher
В ролях: Барбра Стрейзанд, Сет Роген, Джулин Рени, Забрина Гевара, Джон Фанк, Роберт Кертис-Браун, Кэти Нэджими, Мириам Маргулис, Роуз Абду, Том Вирту
О фильме:Главный герой изобрел новое чистящее средство и просит мать отправиться с ним в рекламную кампанию по стране. Но на самом деле его цель иная — соединить сердца матери и мужчины, в которого она была влюблена в молодости. Мама согласилась по похожей причине — она винит себя в неудачах сына на любовном фронте и берется во время путешествия исправить дело.

Качество: BDRip-AVC
Формат: MKV
Видео: х.264, 1040x442 (2,35:1), 23,976 fps, 2505 Кbps, 0.227 bit/pixel
Аудио#1: 48 kHz, AC3 Dolby Digital, 3/2 (L,C,R,l,r) + LFE ch, 384.00 kbps | RUS
Аудио#2: 48 kHz, AC3 Dolby Digital, 3/2 (L,C,R,l,r) + LFE ch, 384.00 kbps | ENG

MI

Общее
Уникальный идентификатор : 176058013466609212744381527001418880771 (0x84738A3DFEB30105A99D5717B7EAD703)
Полное имя : Prokljatije.Mojey.Materi.2012.DUAL.BDRip.x264.-HELLYWOOD.mkv
Формат : Matroska
Версия формата : Version 2
Размер файла : 2,19 Гбайт
Продолжительность : 1 ч. 35 м.
Общий поток : 3274 Кбит/сек
Название фильма : HELLYWOOD
Дата кодирования : UTC 2013-08-06 15:10:23
Программа кодирования : mkvmerge v5.9.0 ('On The Loose') built on Dec 15 2012 16:39:58
Библиотека кодирования : libebml v1.3.0 + libmatroska v1.4.0
Видео
Идентификатор : 1
Формат : AVC
Формат/Информация : Advanced Video Codec
Профиль формата : High@L4.1
Параметр CABAC формата : Да
Параметр ReFrames формата : 10 кадров
Идентификатор кодека : V_MPEG4/ISO/AVC
Продолжительность : 1 ч. 35 м.
Битрейт : 2505 Кбит/сек
Ширина : 1040 пикселей
Высота : 442 пикселя
Соотношение сторон : 2,35:1
Режим частоты кадров : Постоянный
Частота кадров : 23,976 кадра/сек
Цветовое пространство : YUV
Субдискретизация насыщенности : 4:2:0
Битовая глубина : 8 бит
Тип развёртки : Прогрессивная
Бит/(Пиксели*Кадры) : 0.227
Размер потока : 1,63 Гбайт (75%)
Заголовок : The Guilt Trip
Библиотека кодирования : x264 core 130 r2273 b3065e6
Настройки программы : cabac=1 / ref=10 / deblock=1:-2:-2 / analyse=0x3:0x133 / me=umh / subme=11 / psy=1 / psy_rd=1.06:0.00 / mixed_ref=1 / me_range=32 / chroma_me=1 / trellis=2 / 8x8dct=1 / cqm=0 / deadzone=21,11 / fast_pskip=0 / chroma_qp_offset=-2 / threads=9 / lookahead_threads=2 / sliced_threads=0 / nr=0 / decimate=1 / interlaced=0 / bluray_compat=0 / constrained_intra=0 / bframes=11 / b_pyramid=2 / b_adapt=2 / b_bias=0 / direct=3 / weightb=1 / open_gop=0 / weightp=2 / keyint=240 / keyint_min=23 / scenecut=40 / intra_refresh=0 / rc_lookahead=150 / rc=2pass / mbtree=1 / bitrate=2505 / ratetol=1.0 / qcomp=0.70 / qpmin=0 / qpmax=69 / qpstep=4 / cplxblur=20.0 / qblur=0.5 / vbv_maxrate=20000 / vbv_bufsize=25000 / nal_hrd=none / ip_ratio=1.35 / aq=1:0.80
Язык : English
Default : Да
Forced : Нет
Аудио #1
Идентификатор : 2
Формат : AC-3
Формат/Информация : Audio Coding 3
Расширение режима : CM (complete main)
Параметр Endianness формата : Big
Идентификатор кодека : A_AC3
Продолжительность : 1 ч. 35 м.
Вид битрейта : Постоянный
Битрейт : 384 Кбит/сек
Каналы : 6 каналов
Расположение каналов : Front: L C R, Side: L R, LFE
Частота : 48,0 КГц
Битовая глубина : 16 бит
Метод сжатия : С потерями
Размер потока : 263 Мбайт (12%)
Заголовок : MVO | DD 5.1 @ 384 kbps
Язык : Russian
Default : Да
Forced : Да
Аудио #2
Идентификатор : 3
Формат : AC-3
Формат/Информация : Audio Coding 3
Расширение режима : CM (complete main)
Параметр Endianness формата : Big
Идентификатор кодека : A_AC3
Продолжительность : 1 ч. 35 м.
Вид битрейта : Постоянный
Битрейт : 384 Кбит/сек
Каналы : 6 каналов
Расположение каналов : Front: L C R, Side: L R, LFE
Частота : 48,0 КГц
Битовая глубина : 16 бит
Метод сжатия : С потерями
Размер потока : 263 Мбайт (12%)
Заголовок : Original | DD 5.1 @ 384 kbps
Язык : English
Default : Нет
Forced : Нет
Текст #1
Идентификатор : 4
Формат : UTF-8
Идентификатор кодека : S_TEXT/UTF8
Идентификатор кодека/Информация : UTF-8 Plain Text
Заголовок : FULL
Язык : English
Default : Нет
Forced : Нет
Текст #2
Идентификатор : 5
Формат : UTF-8
Идентификатор кодека : S_TEXT/UTF8
Идентификатор кодека/Информация : UTF-8 Plain Text
Заголовок : SDH
Язык : English
Default : Нет
Forced : Нет
Меню
00:00:00.000 : en:00:00:00.000
00:07:42.295 : en:00:07:42.295
00:10:35.593 : en:00:10:35.593
00:18:20.933 : en:00:18:20.933
00:26:03.312 : en:00:26:03.312
00:34:55.135 : en:00:34:55.135
00:42:56.574 : en:00:42:56.574
00:47:22.631 : en:00:47:22.631
00:52:52.044 : en:00:52:52.044
01:05:48.903 : en:01:05:48.903
01:09:15.902 : en:01:09:15.902
01:14:31.884 : en:01:14:31.884
01:20:56.518 : en:01:20:56.518
01:28:23.215 : en:01:28:23.215

log@x.264

x264 [info]: frame I:1204 Avg QP:14.07 size: 88342
x264 [info]: frame P:28451 Avg QP:16.83 size: 28321
x264 [info]: frame B:107912 Avg QP:19.62 size: 8190
x264 [info]: consecutive B-frames: 2.0% 2.1% 5.2% 20.4% 20.1% 33.3% 7.3% 5.3% 1.6% 0.8% 0.6% 1.3%
x264 [info]: mb I I16..4: 5.1% 71.1% 23.9%
x264 [info]: mb P I16..4: 0.2% 4.9% 0.9% P16..4: 29.0% 36.7% 18.4% 3.7% 0.5% skip: 5.7%
x264 [info]: mb B I16..4: 0.0% 0.5% 0.1% B16..8: 36.0% 21.7% 4.5% direct: 4.6% skip:32.6% L0:43.2% L1:43.1% BI:13.7%
x264 [info]: 8x8 transform intra:78.4% inter:56.2%
x264 [info]: direct mvs spatial:98.9% temporal:1.1%
x264 [info]: coded y,uvDC,uvAC intra: 94.4% 90.8% 79.1% inter: 25.6% 18.1% 6.4%
x264 [info]: i16 v,h,dc,p: 35% 12% 7% 46%
x264 [info]: i8 v,h,dc,ddl,ddr,vr,hd,vl,hu: 11% 8% 6% 9% 14% 14% 13% 12% 12%
x264 [info]: i4 v,h,dc,ddl,ddr,vr,hd,vl,hu: 12% 9% 4% 9% 15% 15% 13% 11% 12%
x264 [info]: i8c dc,h,v,p: 45% 20% 19% 16%
x264 [info]: Weighted P-Frames: Y:3.8% UV:1.3%
x264 [info]: ref P L0: 43.6% 10.1% 17.7% 7.0% 6.1% 4.5% 4.2% 2.3% 2.3% 2.0% 0.2% 0.0%
x264 [info]: ref B L0: 70.3% 12.5% 6.4% 3.4% 2.5% 2.2% 1.8% 0.7% 0.3%
x264 [info]: ref B L1: 91.6% 8.4%
x264 [info]: kb/s:2504.07
x264 [total]: encoded 137567 frames, 8.23 fps, 2504.08 kb/s
TIME
------------------------------
Общее время кодирования: 6 hour 15 min 54 sec
Файл получился на: 1713.75 mb

Скриншоты

-
Показать сообщения:    

Текущее время: Сегодня 10:57

Часовой пояс: GMT



Вы не можете начинать темы
Вы не можете отвечать на сообщения
Вы не можете редактировать свои сообщения
Вы не можете удалять свои сообщения
Вы не можете голосовать в опросах
Вы не можете прикреплять файлы к сообщениям
Вы не можете скачивать файлы