Важное объявление!
У Нас Все раздачи мультитрекерные, при нуле пиров в релизах, можете смело вставать на закачку!
 
Автор Сообщение

HUNTER

Стаж:
4 года 4 месяца
Сообщений:
56822

Репутация: 101

[+] [-]
Вне форума [Профиль] [ЛС]

-Проклятие Аннабель / Annabelle-«Перед «заклятием» было»
-Страна: США
Студия: Evergreen Media, New Line Cinema, RatPac-Dune Entertainment, Safran Company, The
Жанр: ужасы
Год выпуска: 2014
Мировая премьера: 29 сентября 2014
Российская премьера: 25 сентября 2014, «Каро-Премьер»
Дата выхода DVD: 5 февраля 2015, «CP Дистрибуция»
Дата выхода Blu-Ray: 5 февраля 2015, «CP Дистрибуция»
Продолжительность: 01:40:04
Перевод: Профессиональный (дублированный) [Лицензия]
Cубтитры: русские, английские, болгарские, латышские, литовские, польские, сербские, словенские, турецкие, украинские, хорватские, эстонские
Оригинальная аудиодорожка: английский-Режиссер: Джон Р. Леонетти / John R. Leonetti-В ролях: Аннабелль Уоллис, Уорд Хортон, Элфри Вудард, Тони Амендола, Эрик Ладин, Керри О’Мэлли, Брайан Хау, Ивар Броггер, Джофф Уэнер, Гэбриел Бейтман-Описание: Джон находит идеальный подарок для своей жены — это редкая старинная кукла в белом свадебном платье. Но восторг от подарка продлился не долго. Однажды ночью в их дом вторгаются члены сатанинского культа…-Бонусы: Проклятие Аннабель- -Релиз группы: -Качество: DVD9 R5
Формат: DVD-Video
Видео кодек: MPEG2
Аудио кодек: AC3
Видео: PAL 16:9 (720x576(0.617)) MPEG Video, 25,000 кадр/сек, 6401 Кбит/сек
Аудио #1: English (Dolby AC3, 6 ch) 384 Кбит/сек, 48,0 КГц
Аудио #2: Polish (Dolby AC3, 6 ch) 384 Кбит/сек, 48,0 КГц
Аудио #3: Russian (Dolby AC3, 6 ch) 384 Кбит/сек, 48,0 КГц
Аудио #4: Turkish (Dolby AC3, 2 ch) 192 Кбит/сек, 48,0 КГц
Аудио #5: Ukrainian (Dolby AC3, 6 ch) 384 Кбит/сек, 48,0 КГц
Аудио #6: English (Dolby AC3, 2 ch) 192 Кбит/сек, 48,0 КГц--

DVDInfo

Title: Рабочий
Size: 5.78 Gb ( 6 065 626 KBytes ) - DVD-9
Enabled regions: 1, 2, 3, 4, 5, 6, 7, 8
VTS_01 :
Play Length: 01:34:46+00:05:18
Video: PAL 16:9 (720x576) VBR, Auto Pan&Scan
Audio:
English (Dolby AC3, 6 ch)
Polish (Dolby AC3, 6 ch)
Russian (Dolby AC3, 6 ch)
Turkish (Dolby AC3, 2 ch)
Ukrainian (Dolby AC3, 6 ch)
English (Dolby AC3, 2 ch)
Subtitles:
English
Bulgarian
Hrvatski
Estonian
Latvian
Lithuanian
Polish
Russian
Slovenian
Turkish
Ukrainian
Russian
Turkish
VTS_02 :
Play Length: 00:00:10
Video: PAL 16:9 (720x576) VBR, Auto Pan&Scan
Audio:
Not specified (Dolby AC3, 6 ch)
Subtitles:
Not specified
Menu Video:
PAL 16:9 (720x576) VBR
Auto Letterboxed
Menu Subtitles:
Not specified
Menu Language Unit :
Root Menu

MediaInfo

Общее
Полное имя : F:\Новинки 2015\Prokljatie.Annabel.2014.DVD9\VIDEO_TS\VTS_01_1.VOB
Формат : MPEG-PS
Размер файла : 1024 Мбайт
Продолжительность : 17 м.
Режим общего битрейта : Переменный
Общий поток : 8294 Кбит/сек
Видео
Идентификатор : 224 (0xE0)
Формат : MPEG Video
Версия формата : Version 2
Профиль формата : Main@Main
Параметр BVOP формата : Да
Параметр матрицы формата : Выборочная
Параметр GOP формата : Variable
Format_Settings_PictureStructure : Frame
Продолжительность : 17 м.
Вид битрейта : Переменный
Битрейт : 6401 Кбит/сек
Максимальный битрейт : 7500 Кбит/сек
Ширина : 720 пикселей
Высота : 576 пикселей
Соотношение сторон : 16:9
Частота кадров : 25,000 кадров/сек
Стандарт вещания : PAL
Цветовое пространство : YUV
Субдискретизация насыщенности : 4:2:0
Битовая глубина : 8 бит
Тип развёртки : Чересстрочная
Порядок развёртки : Верхнее поле первое
Метод сжатия : С потерями
Бит/(Пиксели*Кадры) : 0.617
Временной код первого кадра : 00:59:58:00
Оригинал временного кода : Group of pictures header
Размер потока : 790 Мбайт (77%)
Аудио #1
Идентификатор : 189 (0xBD)-128 (0x80)
Формат : AC-3
Формат/Информация : Audio Coding 3
Расширение режима : CM (complete main)
Параметр Endianness формата : Big
Режим смешивания : DVD-Video
Продолжительность : 17 м.
Вид битрейта : Постоянный
Битрейт : 384 Кбит/сек
Каналы : 6 каналов
Расположение каналов : Front: L C R, Side: L R, LFE
Частота : 48,0 КГц
Битовая глубина : 16 бит
Метод сжатия : С потерями
Размер потока : 47,4 Мбайт (5%)
Аудио #2
Идентификатор : 189 (0xBD)-129 (0x81)
Формат : AC-3
Формат/Информация : Audio Coding 3
Расширение режима : CM (complete main)
Параметр Endianness формата : Big
Режим смешивания : DVD-Video
Продолжительность : 17 м.
Вид битрейта : Постоянный
Битрейт : 384 Кбит/сек
Каналы : 6 каналов
Расположение каналов : Front: L C R, Side: L R, LFE
Частота : 48,0 КГц
Битовая глубина : 16 бит
Метод сжатия : С потерями
Размер потока : 47,4 Мбайт (5%)
Аудио #3
Идентификатор : 189 (0xBD)-130 (0x82)
Формат : AC-3
Формат/Информация : Audio Coding 3
Расширение режима : CM (complete main)
Параметр Endianness формата : Big
Режим смешивания : DVD-Video
Продолжительность : 17 м.
Вид битрейта : Постоянный
Битрейт : 384 Кбит/сек
Каналы : 6 каналов
Расположение каналов : Front: L C R, Side: L R, LFE
Частота : 48,0 КГц
Битовая глубина : 16 бит
Метод сжатия : С потерями
Размер потока : 47,4 Мбайт (5%)
Аудио #4
Идентификатор : 189 (0xBD)-131 (0x83)
Формат : AC-3
Формат/Информация : Audio Coding 3
Профиль формата : Dolby Digital
Расширение режима : CM (complete main)
Параметр Endianness формата : Big
Режим смешивания : DVD-Video
Продолжительность : 17 м.
Вид битрейта : Постоянный
Битрейт : 192 Кбит/сек
Каналы : 2 канала
Расположение каналов : Front: L R
Частота : 48,0 КГц
Битовая глубина : 16 бит
Метод сжатия : С потерями
Размер потока : 23,7 Мбайт (2%)
Аудио #5
Идентификатор : 189 (0xBD)-132 (0x84)
Формат : AC-3
Формат/Информация : Audio Coding 3
Расширение режима : CM (complete main)
Параметр Endianness формата : Big
Режим смешивания : DVD-Video
Продолжительность : 17 м.
Вид битрейта : Постоянный
Битрейт : 384 Кбит/сек
Каналы : 6 каналов
Расположение каналов : Front: L C R, Side: L R, LFE
Частота : 48,0 КГц
Битовая глубина : 16 бит
Метод сжатия : С потерями
Размер потока : 47,4 Мбайт (5%)
Текст #1
Идентификатор : 189 (0xBD)-32 (0x20)
Формат : RLE
Формат/Информация : Run-length encoding
Режим смешивания : DVD-Video
Текст #2
Идентификатор : 189 (0xBD)-33 (0x21)
Формат : RLE
Формат/Информация : Run-length encoding
Режим смешивания : DVD-Video
Текст #3
Идентификатор : 189 (0xBD)-34 (0x22)
Формат : RLE
Формат/Информация : Run-length encoding
Режим смешивания : DVD-Video
Текст #4
Идентификатор : 189 (0xBD)-35 (0x23)
Формат : RLE
Формат/Информация : Run-length encoding
Режим смешивания : DVD-Video
Текст #5
Идентификатор : 189 (0xBD)-36 (0x24)
Формат : RLE
Формат/Информация : Run-length encoding
Режим смешивания : DVD-Video
Текст #6
Идентификатор : 189 (0xBD)-37 (0x25)
Формат : RLE
Формат/Информация : Run-length encoding
Режим смешивания : DVD-Video
Текст #7
Идентификатор : 189 (0xBD)-38 (0x26)
Формат : RLE
Формат/Информация : Run-length encoding
Режим смешивания : DVD-Video
Текст #8
Идентификатор : 189 (0xBD)-39 (0x27)
Формат : RLE
Формат/Информация : Run-length encoding
Режим смешивания : DVD-Video
Текст #9
Идентификатор : 189 (0xBD)-40 (0x28)
Формат : RLE
Формат/Информация : Run-length encoding
Режим смешивания : DVD-Video
Текст #10
Идентификатор : 189 (0xBD)-41 (0x29)
Формат : RLE
Формат/Информация : Run-length encoding
Режим смешивания : DVD-Video
Текст #11
Идентификатор : 189 (0xBD)-42 (0x2A)
Формат : RLE
Формат/Информация : Run-length encoding
Режим смешивания : DVD-Video

Скриншоты меню

Скриншоты фильма

Скриншоты доп. материалов


-
-Раздача от группы:

_________________
Показать сообщения:    

Текущее время: Сегодня 01:07

Часовой пояс: GMT



Вы не можете начинать темы
Вы не можете отвечать на сообщения
Вы не можете редактировать свои сообщения
Вы не можете удалять свои сообщения
Вы не можете голосовать в опросах
Вы не можете прикреплять файлы к сообщениям
Вы не можете скачивать файлы