Важное объявление!
У Нас Все раздачи мультитрекерные, при нуле пиров в релизах, можете смело вставать на закачку!
 
Автор Сообщение

HUNTER

Стаж:
4 года 4 месяца
Сообщений:
56722

Репутация: 101

[+] [-]
Вне форума [Профиль] [ЛС]

Прозрение / Los ojos de Julia
Страна: Испания
Жанр: триллер, детектив
Год выпуска: 2010
Продолжительность: 01:57:15
Перевод 1: Одноголосый закадровый, DeMon
Перевод 2: Любительский (двухголосый закадровый)
Cубтитры: русские
Оригинальная аудиодорожка: испанский-Режиссер: Гильем Моралес / Guillem Morales
В ролях: Белен Руэда, Льюис Омар, Пабло Дерки, Франсеск Орелья, Хоан Дальмау, Хулия Гутьеррес Каба, Борис Руис, Дэни Кодина, Андреа Эрмоса, Даниель Грао-Описание: Бывший астроном Джулия, страдающая от прогрессирующей болезни глаз, обнаруживает свою сестру-близнеца Сару задохнувшейся в петле в подвале ее старого дома. Официальная версия полиции — самоубийство; причина трагедии — полная потеря зрения в результате того же заболевания.
Однако Джулия инстинктивно чувствует, что Сару безжалостно и расчетливо убили. Несмотря на безразличие служителей закона и настороженность ее спутника жизни Исаака, она начинает собственное расследование. Найти убийцу ей нужно до того, как в ее глазах окончательно померкнет свет.-
Сэмпл: https://yadi.sk/i/MJ6pI6AZfovhn
Тип релиза: BDRip 1080p [Прозрение / Los ojos de Julia (2010) [1080p] BDRemux / virtuhan / nnm]
Контейнер: MKV-Видео: 1920x818p, 23.976 fps, x264 ~8999 kbps
Аудио: Русский 48 кГц, DTS 5.1, 3/2 (L,C,R,l,r) + LFE ch, 1510 кбит/сек | DeMon
Аудио 2: Русский 48 kHz, AC3 Dolby Digital 5.1, 3/2 (L,C,R,l,r) + LFE ch, ~448.00 kbps avg | DVO
Аудио 3: Испанский 48 кГц, DTS 5.1, 3/2 (L,C,R,l,r) + LFE ch, 1510 кбит/сек | original

MediaInfo

Общее
Уникальный идентификатор : 206781411305741740327866557709303894973 (0x9B90A6B4E36F03D5B080F8F1BCAB53BD)
Полное имя : E:\Downloads\Video\Prozrenie.2010.x264.BDRip(1080p). by ВИДЕО HUB [HDТV].mkv
Формат : Matroska
Версия формата : Version 2
Размер файла : 10,2 Гбайт
Продолжительность : 1 ч. 57 м.
Общий поток : 12,5 Мбит/сек
Дата кодирования : UTC 2011-04-09 06:37:10
Программа кодирования : mkvmerge v3.2.0 ('Beginnings') built on Feb 17 2010 12:36:13
Библиотека кодирования : libebml v0.7.9 + libmatroska v0.8.1
Видео
Идентификатор : 1
Формат : AVC
Формат/Информация : Advanced Video Codec
Профиль формата : High@L4.0
Параметр CABAC формата : Да
Параметр ReFrames формата : 4 кадра
Идентификатор кодека : V_MPEG4/ISO/AVC
Продолжительность : 1 ч. 57 м.
Номинальный битрейт : 8999 Кбит/сек
Ширина : 1920 пикселей
Высота : 818 пикселей
Соотношение сторон : 2,35:1
Режим частоты кадров : Постоянный
Частота кадров : 23,976 кадра/сек
Цветовое пространство : YUV
Субдискретизация насыщенности : 4:2:0
Битовая глубина : 8 бит
Тип развёртки : Прогрессивная
Бит/(Пиксели*Кадры) : 0.239
Библиотека кодирования : x264 core 114 r1913 5fd3dce
Настройки программы : cabac=1 / ref=3 / deblock=1:0:0 / analyse=0x3:0x111 / me=hex / subme=6 / psy=1 / psy_rd=1.00:0.00 / mixed_ref=1 / me_range=16 / chroma_me=1 / trellis=1 / 8x8dct=1 / cqm=0 / deadzone=21,11 / fast_pskip=1 / chroma_qp_offset=-2 / threads=6 / sliced_threads=0 / nr=0 / decimate=1 / interlaced=0 / constrained_intra=0 / bframes=3 / b_pyramid=2 / b_adapt=1 / b_bias=0 / direct=1 / weightb=1 / open_gop=0 / weightp=2 / keyint=250 / keyint_min=23 / scenecut=40 / intra_refresh=0 / rc=2pass / mbtree=0 / bitrate=8999 / ratetol=1.0 / qcomp=0.60 / qpmin=10 / qpmax=51 / qpstep=4 / cplxblur=20.0 / qblur=0.5 / ip_ratio=1.40 / pb_ratio=1.30 / aq=1:1.00
Язык : English
Default : Нет
Forced : Нет
Аудио #1
Идентификатор : 2
Формат : DTS
Формат/Информация : Digital Theater Systems
Режим : 16
Параметр Endianness формата : Big
Идентификатор кодека : A_DTS
Продолжительность : 1 ч. 57 м.
Вид битрейта : Постоянный
Битрейт : 1510 Кбит/сек
Каналы : 6 каналов
Расположение каналов : Front: L C R, Side: L R, LFE
Частота : 48,0 КГц
Битовая глубина : 24 бит
Метод сжатия : С потерями
Размер потока : 1,24 Гбайт (12%)
Заголовок : DeMon
Язык : Russian
Default : Да
Forced : Нет
Аудио #2
Идентификатор : 3
Формат : AC-3
Формат/Информация : Audio Coding 3
Идентификатор кодека : A_AC3
Продолжительность : 1 ч. 57 м.
Каналы : 6 каналов
Частота : 48,0 КГц
Метод сжатия : С потерями
Заголовок : DVO
Язык : Russian
Default : Нет
Forced : Нет
Аудио #3
Идентификатор : 5
Формат : DTS
Формат/Информация : Digital Theater Systems
Режим : 16
Параметр Endianness формата : Big
Идентификатор кодека : A_DTS
Продолжительность : 1 ч. 57 м.
Вид битрейта : Постоянный
Битрейт : 1509 Кбит/сек
Каналы : 6 каналов
Расположение каналов : Front: L C R, Side: L R, LFE
Частота : 48,0 КГц
Битовая глубина : 24 бит
Метод сжатия : С потерями
Размер потока : 1,24 Гбайт (12%)
Язык : Spanish
Default : Нет
Forced : Нет
Текст
Идентификатор : 4
Формат : UTF-8
Идентификатор кодека : S_TEXT/UTF8
Идентификатор кодека/Информация : UTF-8 Plain Text
Заголовок : lingua.pura
Язык : Russian
Default : Да
Forced : Нет

Скриншоты

Дополнительно

Релиз является сцен-рипом. Сцен-рипы чаще всего делаются с упрощенными настройками кодирования для быстрого получения результата в ущерб качеству последнего. Такие рипы предназначены, прежде всего, для предварительного ознакомления с материалом (новыми фильмами, недавно вышедшими релизами на Blu-ray и HDTV).

_________________
Показать сообщения:    

Текущее время: Сегодня 10:36

Часовой пояс: GMT



Вы не можете начинать темы
Вы не можете отвечать на сообщения
Вы не можете редактировать свои сообщения
Вы не можете удалять свои сообщения
Вы не можете голосовать в опросах
Вы не можете прикреплять файлы к сообщениям
Вы не можете скачивать файлы