Важное объявление!
У Нас Все раздачи мультитрекерные, при нуле пиров в релизах, можете смело вставать на закачку!
 
Автор Сообщение

HUNTER

Стаж:
4 года 4 месяца
Сообщений:
56808

Репутация: 101

[+] [-]
Вне форума [Профиль] [ЛС]

Продавщица / Shopgirl / Uncut
Страна: США
Жанр: драма, мелодрама
Год выпуска: 2005
Продолжительность: 01:46:11
Перевод: Профессиональный (дублированный) Мосфильм-Мастер
Cубтитры: русские, русские форсированные (на фрагменты без перевода), английские
Оригинальная аудиодорожка: английский
Режиссер: Ананд Такер / Anand Tucker
В ролях: Стив Мартин, Клэр Дэйнс, Джейсон Шварцман, Бриджит Уилсон, Сэм Боттомс, Фрэнсис Конрой, Ребекка Пиджон, Саманта Шелтон, Джина Доктор, Клайд Кусац...
Описание: Начинающая художница Мирабель работает продавщицей в одном из торговых центров Беверли-Хиллз и никак не может отделаться от ощущения бесполезности своей работы и скуки отношений с не снискавшим славы молодым музыкантом Джереми.
Так продолжается до тех пор, пока в один прекрасный день она не встречает Рэя Портера — уже немолодого разведенного богача, который не прочь стать ее «парнем». Теперь Мирабель должна сделать выбор между двумя претендентами на ее взаимность, а это оказывается не так и просто.
Доп. информация: фильм отличается от версии изданной на DVD, одной дополнительной сценой.
Сэмпл: http://multi-up.com/1000368
Тип релиза: WEB-DL 720p
Контейнер: MKV
Видео: 1280x542 (2.35:1), 23.976 fps, AVC, ~4185 Kbps, 0.252 bits/pixel
Аудио 1: Russian, 48.0 KHz, AC3, 6 ch, 448 Kbps
Аудио 2: English, 48.0 KHz, AC3, 6 ch, 384 Kbps

MediaInfo

General
Unique ID : 205928036536547137432930136096084578221 (0x9AEC4C15006F53228161082E4F43CFAD)
Complete name : D:\Shopgirl.mkv
Format : Matroska
Format version : Version 4 / Version 2
File size : 3.80 GiB
Duration : 1h 46mn
Overall bit rate : 5 119 Kbps
Encoded date : UTC 2014-09-20 14:13:20
Writing application : mkvmerge v7.1.0 ('Good Love') 64bit built on Jul 27 2014 13:06:55
Writing library : libebml v1.3.0 + libmatroska v1.4.1
DURATION : 01:46:11.136000000
NUMBER_OF_FRAMES : 199098
NUMBER_OF_BYTES : 356783616
_STATISTICS_WRITING_APP : mkvmerge v7.1.0 ('Good Love') 64bit built on Jul 27 2014 13:06:55
_STATISTICS_WRITING_DATE_UTC : 2014-09-20 14:13:20
_STATISTICS_TAGS : BPS DURATION NUMBER_OF_FRAMES NUMBER_OF_BYTES
Video
ID : 1
Format : AVC
Format/Info : Advanced Video Codec
Format profile : Main@L3.1
Format settings, CABAC : No
Format settings, ReFrames : 2 frames
Codec ID : V_MPEG4/ISO/AVC
Duration : 1h 46mn
Bit rate : 4 185 Kbps
Width : 1 280 pixels
Height : 542 pixels
Display aspect ratio : 2.35:1
Frame rate mode : Constant
Frame rate : 23.976 fps
Color space : YUV
Chroma subsampling : 4:2:0
Bit depth : 8 bits
Scan type : Progressive
Bits/(Pixel*Frame) : 0.252
Stream size : 3.10 GiB (82%)
Language : English
Default : Yes
Forced : No
Color primaries : BT.709
Transfer characteristics : BT.709
Matrix coefficients : BT.709
Audio #1
ID : 2
Format : AC-3
Format/Info : Audio Coding 3
Mode extension : CM (complete main)
Format settings, Endianness : Big
Codec ID : A_AC3
Duration : 1h 46mn
Bit rate mode : Constant
Bit rate : 448 Kbps
Channel(s) : 6 channels
Channel positions : Front: L C R, Side: L R, LFE
Sampling rate : 48.0 KHz
Bit depth : 16 bits
Compression mode : Lossy
Stream size : 340 MiB (9%)
Language : Russian
Default : Yes
Forced : No
Audio #2
ID : 3
Format : AC-3
Format/Info : Audio Coding 3
Mode extension : CM (complete main)
Format settings, Endianness : Big
Codec ID : A_AC3
Duration : 1h 46mn
Bit rate mode : Constant
Bit rate : 384 Kbps
Channel(s) : 6 channels
Channel positions : Front: L C R, Side: L R, LFE
Sampling rate : 48.0 KHz
Bit depth : 16 bits
Compression mode : Lossy
Stream size : 292 MiB (8%)
Language : English
Default : No
Forced : No
Text #1
ID : 4
Format : UTF-8
Codec ID : S_TEXT/UTF8
Codec ID/Info : UTF-8 Plain Text
Title : Forced
Language : Russian
Default : Yes
Forced : No
Text #2
ID : 5
Format : UTF-8
Codec ID : S_TEXT/UTF8
Codec ID/Info : UTF-8 Plain Text
Language : Russian
Default : No
Forced : No
Text #3
ID : 6
Format : UTF-8
Codec ID : S_TEXT/UTF8
Codec ID/Info : UTF-8 Plain Text
Language : English
Default : No
Forced : No
Menu
00:00:00.000 : en:Opening Credits / Mirabelle, Hoping To Begin Life
00:06:23.000 : en:Jeremy, An OK Guy
00:14:38.000 : en:Afterglow?
00:24:03.000 : en:Ray Porter, A Man Over Fifty
00:39:03.000 : en:Friday Night
00:48:17.000 : en:Being Really Clear
01:01:11.000 : en:"I Am Sorry"
01:14:29.000 : en:Hard To Be Close
01:18:38.000 : en:Living In The Moment
01:25:46.000 : en:Hurting Now
01:30:31.000 : en:This Is The Moment
01:37:23.000 : en:"It Was Life" / End Credits

Скриншоты


_________________
Показать сообщения:    

Текущее время: Сегодня 08:29

Часовой пояс: GMT



Вы не можете начинать темы
Вы не можете отвечать на сообщения
Вы не можете редактировать свои сообщения
Вы не можете удалять свои сообщения
Вы не можете голосовать в опросах
Вы не можете прикреплять файлы к сообщениям
Вы не можете скачивать файлы