Важное объявление!
У Нас Все раздачи мультитрекерные, при нуле пиров в релизах, можете смело вставать на закачку!
 
Автор Сообщение

HUNTER

Стаж:
4 года 4 месяца
Сообщений:
56755

Репутация: 101

[+] [-]
Вне форума [Профиль] [ЛС]

Прогулка среди могил / A Walk Among the Tombstones
Страна: США
Жанр: Боевик, триллер, криминал, детектив
Год выпуска: 2014
Продолжительность: 01:54:05
Перевод 1: Одноголосый закадровый | Есарев Д.
Перевод 2: Одноголосый закадровый | Есарев Д. [без цензуры]
Перевод 3: Любительский (двухголосый закадровый) | Сладкая парочка
Cубтитры: английские
Оригинальная аудиодорожка: английский--Режиссер: Скотт Фрэнк / Scott Frank--В ролях: Лиам Нисон, Дэн Стивенс, Дэвид Харбор, Бойд Холбрук, Себастьян Роше, Астро, Уитни Эйбл, Стефани Андужар, Марина Скверсьяти, Марк Консуэлос, Ким Розен, Разан Джаммаль, Стефани Андухар...--Описание: Нью-Йорк охватывает волна странных и страшных убийств. Муж одной из жертв, наркобарон, нанимает бывшего полицейского, чтобы тот добрался до убийцы жены. Частный детектив Скаддер видит то, чего не замечает полиция, и проникает туда, куда копы боятся даже сунуть нос. Распутывая дьявольские преступления, он понимает, что люди боятся совсем не того.--Доп. информация: Kinopoisk | IMDB | Sample |--Тип релиза: BDRip 720p
Контейнер: MKV
Видео: MPEG-4 AVC, 1280x536, 6 352 kbps avg, 23.976 fps
Аудио 1: 48 kHz, DTS, 3/2 (L,C,R,l,r) + LFE ch, 1536.00 kbps | Есарев Д.
Аудио 2: 48 kHz, DTS, 3/2 (L,C,R,l,r) + LFE ch, 1536.00 kbps | Есарев Д. [без цензуры]
Аудио 3: 48 kHz, AC3 Dolby Digital, 2/0 (L,R) ch, 384 kbps | Сладкая парочка
Аудио 4: 48 kHz, DTS, 3/2 (L,C,R,l,r) + LFE ch, 1536.00 kbps avg
Формат субтитров: softsub (SRT)

MediaInfo

General
Unique ID : 213905942379727732409301955608221561753 (0xA0ECC93567BBD3FAA290FD76CD3FB399)
Complete name : A Walk Among the Tombstones (2014).mkv
Format : Matroska
Format version : Version 4 / Version 2
File size : 9.16 GiB
Duration : 1h 54mn
Overall bit rate : 11.5 Mbps
Movie name : Прогулка среди могил / A Walk Among the Tombstones (2014)
Encoded date : UTC 2015-03-19 08:11:09
Writing application : mkvmerge v7.7.0 ('Six Voices') 64bit built on Feb 28 2015 23:39:33
Writing library : libebml v1.3.1 + libmatroska v1.4.2
Attachements : cover.jpg
_STATISTICS_WRITING_APP : mkvmerge v7.7.0 ('Six Voices') 64bit built on Feb 28 2015 23:39:33
_STATISTICS_WRITING_DATE_UT : 2015-03-19 08:11:09
_STATISTICS_TAGS : BPS DURATION NUMBER_OF_FRAMES NUMBER_OF_BYTES
DURATION : 01:46:50.487000000
NUMBER_OF_FRAMES : 1605
NUMBER_OF_BYTES : 50355
Video
ID : 1
Format : AVC
Format/Info : Advanced Video Codec
Format profile : High@L4.1
Format settings, CABAC : Yes
Format settings, ReFrames : 12 frames
Codec ID : V_MPEG4/ISO/AVC
Duration : 1h 54mn
Bit rate : 6 352 Kbps
Width : 1 280 pixels
Height : 536 pixels
Display aspect ratio : 2.40:1
Frame rate mode : Constant
Frame rate : 23.976 fps
Color space : YUV
Chroma subsampling : 4:2:0
Bit depth : 8 bits
Scan type : Progressive
Bits/(Pixel*Frame) : 0.386
Stream size : 5.06 GiB (55%)
Writing library : x264 core 144 r2525kMod 40bb568
Encoding settings : cabac=1 / ref=12 / deblock=1:-3:-3 / analyse=0x3:0x133 / me=umh / subme=10 / psy=1 / fade_compensate=0.00 / psy_rd=1.00:0.00 / mixed_ref=1 / me_range=24 / chroma_me=1 / trellis=2 / 8x8dct=1 / cqm=0 / deadzone=21,11 / fast_pskip=1 / chroma_qp_offset=-2 / threads=12 / lookahead_threads=3 / sliced_threads=0 / nr=0 / decimate=1 / interlaced=0 / bluray_compat=0 / constrained_intra=0 / fgo=0 / bframes=11 / b_pyramid=2 / b_adapt=2 / b_bias=0 / direct=3 / weightb=1 / open_gop=0 / weightp=2 / keyint=250 / keyint_min=23 / scenecut=40 / intra_refresh=0 / rc=crf / mbtree=0 / crf=14.8000 / qcomp=0.60 / qpmin=0 / qpmax=69 / qpstep=4 / ip_ratio=1.20 / pb_ratio=1.10 / aq=3:0.65
Language : English
Default : Yes
Forced : No
Matrix coefficients : BT.709
Color range : Limited
_STATISTICS_WRITING_APP : mkvmerge v7.7.0 ('Six Voices') 64bit built on Feb 28 2015 23:39:33
_STATISTICS_WRITING_DATE_UT : 2015-03-19 08:11:09
_STATISTICS_TAGS : BPS DURATION NUMBER_OF_FRAMES NUMBER_OF_BYTES
DURATION : 01:54:05.214000000
NUMBER_OF_FRAMES : 164121
NUMBER_OF_BYTES : 5627071136
Audio #1
ID : 2
Format : DTS
Format/Info : Digital Theater Systems
Mode : 16
Format settings, Endianness : Big
Codec ID : A_DTS
Duration : 1h 54mn
Bit rate mode : Constant
Bit rate : 1 510 Kbps
Channel(s) : 6 channels
Channel positions : Front: L C R, Side: L R, LFE
Sampling rate : 48.0 KHz
Bit depth : 24 bits
Compression mode : Lossy
Stream size : 1.20 GiB (13%)
Title : Одноголосый закадровый. Есарев Д.
Language : Russian
Default : Yes
Forced : No
Audio #2
ID : 3
Format : DTS
Format/Info : Digital Theater Systems
Mode : 16
Format settings, Endianness : Big
Codec ID : A_DTS
Duration : 1h 54mn
Bit rate mode : Constant
Bit rate : 1 510 Kbps
Channel(s) : 6 channels
Channel positions : Front: L C R, Side: L R, LFE
Sampling rate : 48.0 KHz
Bit depth : 24 bits
Compression mode : Lossy
Stream size : 1.20 GiB (13%)
Title : Одноголосый закадровый. Есарев Д. (без цензуры)
Language : Russian
Default : No
Forced : No
Audio #3
ID : 4
Format : AC-3
Format/Info : Audio Coding 3
Mode extension : CM (complete main)
Format settings, Endianness : Big
Codec ID : A_AC3
Duration : 1h 54mn
Bit rate mode : Constant
Bit rate : 384 Kbps
Channel(s) : 2 channels
Channel positions : Front: L R
Sampling rate : 48.0 KHz
Bit depth : 16 bits
Compression mode : Lossy
Stream size : 313 MiB (3%)
Title : Любительский (двухголосый закадровый) Сладкая парочка
Language : Russian
Default : No
Forced : No
Audio #4
ID : 5
Format : DTS
Format/Info : Digital Theater Systems
Mode : 16
Format settings, Endianness : Big
Codec ID : A_DTS
Duration : 1h 54mn
Bit rate mode : Constant
Bit rate : 1 509 Kbps
Channel(s) : 6 channels
Channel positions : Front: L C R, Side: L R, LFE
Sampling rate : 48.0 KHz
Bit depth : 24 bits
Compression mode : Lossy
Stream size : 1.20 GiB (13%)
Language : English
Default : No
Forced : No
Text #1
ID : 6
Format : UTF-8
Codec ID : S_TEXT/UTF8
Codec ID/Info : UTF-8 Plain Text
Language : English
Default : No
Forced : No
Text #2
ID : 7
Format : UTF-8
Codec ID : S_TEXT/UTF8
Codec ID/Info : UTF-8 Plain Text
Title : SDH
Language : English
Default : No
Forced : No
Menu
00:00:00.000 : en:00:00:00.000
00:06:05.490 : en:00:06:05.490
00:12:23.576 : en:00:12:23.576
00:19:49.730 : en:00:19:49.730
00:25:04.378 : en:00:25:04.378
00:31:19.377 : en:00:31:19.377
00:37:34.127 : en:00:37:34.127
00:42:39.682 : en:00:42:39.682
00:48:59.061 : en:00:48:59.061
00:55:30.452 : en:00:55:30.452
01:02:32.540 : en:01:02:32.540
01:07:45.019 : en:01:07:45.019
01:12:31.305 : en:01:12:31.305
01:16:49.980 : en:01:16:49.980
01:24:01.036 : en:01:24:01.036
01:28:31.056 : en:01:28:31.056
01:35:01.321 : en:01:35:01.321
01:39:32.049 : en:01:39:32.049
01:44:18.711 : en:01:44:18.711
01:50:10.729 : en:01:50:10.729

Скриншоты


_________________
Показать сообщения:    

Текущее время: Сегодня 16:11

Часовой пояс: GMT



Вы не можете начинать темы
Вы не можете отвечать на сообщения
Вы не можете редактировать свои сообщения
Вы не можете удалять свои сообщения
Вы не можете голосовать в опросах
Вы не можете прикреплять файлы к сообщениям
Вы не можете скачивать файлы