Важное объявление!
У Нас Все раздачи мультитрекерные, при нуле пиров в релизах, можете смело вставать на закачку!
 
Автор Сообщение

HUNTER

Стаж:
4 года 4 месяца
Сообщений:
56822

Репутация: 101

[+] [-]
Вне форума [Профиль] [ЛС]


Программирование в 1С 8.2-Год выпуска: 2010
Страна: Россия
Сайт производителя: отсутствуeт
Тематика: Программирование
Тип материала: Видеоуроки
Продолжительность: 30 x 01:10:00
Автор: Павел Чистов
Язык: Русский
Субтитры: отсутствуют-Описание: Учебный курс по программированию в 1С 8.2 (видеоуроки и конфигурации по урокам)-Качество: DVDRip
Формат: AVI
Видео кодек: H.264
Аудио кодек: MP3
Видео: 800x600 (1.33:1), 30 fps, Intel ITU H.264 ~267 kbps avg, 0.02 bit/pixel
Аудио: 48 kHz, MPEG Layer 3, 2 ch, ~128.00 kbps avg-

MediaInfo

Код: copyText_writeLink('this.parentNode.parentNode.nextSibling.nextSibling'); Общее
Полное имя : D:\обуч\Pavel_Chistov_1C_8.2_predpiyatiya\Pavel_Chistov_1C_8.2_predpiyatiya_1.01.avi
Формат : AVI
Формат/Информация : Audio Video Interleave
Размер файла : 198 Мбайт
Продолжительность : 1 ч. 8 м.
Общий поток : 404 Кбит/сек
Видео
Идентификатор : 0
Формат : AVC
Формат/Информация : Advanced Video Codec
Профиль формата : [url=mailto:High@L3.1]High@L3.1[/url]
Параметр CABAC формата : Да
Параметр ReFrames формата : 1 кадр
Идентификатор кодека : H264
Продолжительность : 1 ч. 8 м.
Битрейт : 267 Кбит/сек
Номинальный битрейт : 900 Кбит/сек
Ширина : 800 пикселей
Высота : 600 пикселей
Соотношение сторон : 4:3
Частота кадров : 30,000 кадров/сек
Частота кадров в оригинале : 25,000 кадров/сек
Цветовое пространство : YUV
Субдискретизация насыщенности : 4:2:0
Битовая глубина : 8 бит
Тип развёртки : Прогрессивная
Бит/(Пиксели*Кадры) : 0.019
Размер потока : 131 Мбайт (66%)
Библиотека кодирования : x264 core 1679553132Dec 17 2008
Настройки программы : cabac=1 / ref=1 / deblock=0:0:0 / analyse=0x3:0x113 / me=hex / subme=5 / psy_rd=0.0:0.0 / mixed_ref=0 / me_range=16 / chroma_me=1 / trellis=0 / 8x8dct=1 / cqm=0 / deadzone=21,11 / chroma_qp_offset=0 / threads=1 / nr=0 / decimate=1 / mbaff=0 / bframes=0 / keyint=250 / keyint_min=1 / scenecut=40 / rc=abr / bitrate=900 / ratetol=1.0 / qcomp=0.50 / qpmin=2 / qpmax=31 / qpstep=4 / ip_ratio=1.40 / aq=1:0.30
Аудио
Идентификатор : 1
Формат : MPEG Audio
Версия формата : Version 1
Профиль формата : Layer 3
Идентификатор кодека : 55
Идентификатор кодека/Подсказка : MP3
Продолжительность : 1 ч. 8 м.
Вид битрейта : Постоянный
Битрейт : 128 Кбит/сек
Каналы : 2 канала
Частота : 48,0 КГц
Метод сжатия : С потерями
Размер потока : 62,7 Мбайт (32%)
Выравнивание : Разделение по промежуткам
Продолжительность промежутка : 1000 мс. (30,00 видеокадров)
Время предзагрузки промежутка : 750 мс.
Библиотека кодирования : LAME3.97 (beta)ЄЄЄЄЄ

Скриншоты

-

_________________
Показать сообщения:    

Текущее время: Сегодня 08:42

Часовой пояс: GMT



Вы не можете начинать темы
Вы не можете отвечать на сообщения
Вы не можете редактировать свои сообщения
Вы не можете удалять свои сообщения
Вы не можете голосовать в опросах
Вы не можете прикреплять файлы к сообщениям
Вы не можете скачивать файлы