Важное объявление!
У Нас Все раздачи мультитрекерные, при нуле пиров в релизах, можете смело вставать на закачку!
 
Автор Сообщение

HUNTER

Стаж:
4 года 4 месяца
Сообщений:
56734

Репутация: 101

[+] [-]
Вне форума [Профиль] [ЛС]

Пробуждая мертвецов / Waking the Dead-
Год выпуска: 2000
Страна: США, Канада
Жанр: триллер, драма, мелодрама
Продолжительность: 01:45:11
Перевод: Профессиональный (двухголосый, закадровый) West Video
+ Профессиональный (многоголосый, закадровый) Первый канал
Оригинальная звуковая дорожка: English
Субтитры: Russian (West Video), English-Режиссер: Кит Гордон / Keith Gordon
В ролях: Билли Крудап, Дженнифер Коннелли, Молли Паркер, Джанет МакТир, Пол Хипп, Сандра О, Хэл Холбрук, Нельсон Ландрэ, Айвон Колл, Лоуренс Дэйн
О фильме: Молодой офицер береговой охраны Филдинг Пирс встречает девушку своей мечты. Это была настоящая любовь, которая не должна была закончится никогда.
Но однажды Сара трагически погибает… Спустя несколько лет успешная карьера дала Филдингу почти все, чего он желал, кроме утраченной любви.
Он жил в Чикаго с другой женщиной, только временами ему стало казаться, что Сара жива…
Релиз: by Rudolpho
Формат: MKV
Видео: 1280x688 at 23.976 fps, MPEG-4 AVC, 3851 kbps
Аудио #01: Russian: 48 kHz, AC3, 3/2 (L,C,R,l,r) + LFE ch, ~384.00 kbps avg |Двухголосый закадровый, West Video|
Аудио #02: Russian: 48 kHz, AC3, 2/0 (L,R) ch, ~192.00 kbps avg |Многоголосый закадровый, Первый канал|
Аудио #03: English: 48 kHz, AC3, 3/2 (L,C,R,l,r) + LFE ch, ~384.00 kbps avg
Семпл-

Скриншоты


-

mInfo


Формат : Matroska
Версия формата : Version 4 / Version 2
Размер файла : 3,61 Гбайт
Продолжительность : 1 ч. 45 м.
Общий поток : 4909 Кбит/сек
Дата кодирования : UTC 2014-10-05 11:39:42
Программа кодирования : mkvmerge v7.0.0 ('Where We Going') 32bit built on Jun 9 2014 15:08:34
Библиотека кодирования : libebml v1.3.0 + libmatroska v1.4.1
DURATION : 01:38:30.160000000
NUMBER_OF_FRAMES : 1099
NUMBER_OF_BYTES : 39606
_STATISTICS_WRITING_APP : mkvmerge v7.0.0 ('Where We Going') 32bit built on Jun 9 2014 15:08:34
_STATISTICS_WRITING_DATE_UTC : 2014-10-05 11:39:42
_STATISTICS_TAGS : BPS DURATION NUMBER_OF_FRAMES NUMBER_OF_BYTES
Attachment : Yes
Видео
Идентификатор : 1
Формат : AVC
Формат/Информация : Advanced Video Codec
Профиль формата : High@L3.1
Параметр CABAC формата : Нет
Параметр ReFrames формата : 2 кадра
Идентификатор кодека : V_MPEG4/ISO/AVC
Продолжительность : 1 ч. 45 м.
Битрейт : 3851 Кбит/сек
Ширина : 1280 пикселей
Высота : 688 пикселей
Соотношение сторон : 1,85:1
Режим частоты кадров : Постоянный
Частота кадров : 23,976 кадра/сек
Цветовое пространство : YUV
Субдискретизация насыщенности : 4:2:0
Битовая глубина : 8 бит
Тип развёртки : Прогрессивная
Бит/(Пиксели*Кадры) : 0.182
Размер потока : 2,83 Гбайт (78%)
Язык : English
Default : Да
Forced : Нет
Основные цвета : BT.709
Характеристики трансфера : BT.709
Коэффициенты матрицы : BT.709
Аудио #1
Идентификатор : 2
Формат : AC-3
Формат/Информация : Audio Coding 3
Расширение режима : CM (complete main)
Параметр Endianness формата : Big
Идентификатор кодека : A_AC3
Продолжительность : 1 ч. 45 м.
Вид битрейта : Постоянный
Битрейт : 384 Кбит/сек
Каналы : 6 каналов
Расположение каналов : Front: L C R, Side: L R, LFE
Частота : 48,0 КГц
Битовая глубина : 16 бит
Метод сжатия : С потерями
Размер потока : 289 Мбайт (8%)
Заголовок : DVO (West Video)
Язык : Russian
Default : Да
Forced : Нет
Аудио #2
Идентификатор : 3
Формат : AC-3
Формат/Информация : Audio Coding 3
Расширение режима : CM (complete main)
Параметр Endianness формата : Big
Идентификатор кодека : A_AC3
Продолжительность : 1 ч. 45 м.
Вид битрейта : Постоянный
Битрейт : 192 Кбит/сек
Каналы : 2 канала
Расположение каналов : Front: L R
Частота : 48,0 КГц
Битовая глубина : 16 бит
Метод сжатия : С потерями
Размер потока : 144 Мбайт (4%)
Заголовок : MVO (1)
Язык : Russian
Default : Нет
Forced : Нет
Аудио #3
Идентификатор : 4
Формат : AC-3
Формат/Информация : Audio Coding 3
Расширение режима : CM (complete main)
Параметр Endianness формата : Big
Идентификатор кодека : A_AC3
Продолжительность : 1 ч. 45 м.
Вид битрейта : Постоянный
Битрейт : 384 Кбит/сек
Каналы : 6 каналов
Расположение каналов : Front: L C R, Side: L R, LFE
Частота : 48,0 КГц
Битовая глубина : 16 бит
Метод сжатия : С потерями
Размер потока : 289 Мбайт (8%)
Заголовок : Original
Язык : English
Default : Нет
Forced : Нет
Текст #1
Идентификатор : 5
Формат : UTF-8
Идентификатор кодека : S_TEXT/UTF8
Идентификатор кодека/Информация : UTF-8 Plain Text
Заголовок : West Video
Язык : Russian
Default : Нет
Forced : Нет
Текст #2
Идентификатор : 6
Формат : UTF-8
Идентификатор кодека : S_TEXT/UTF8
Идентификатор кодека/Информация : UTF-8 Plain Text
Язык : English
Default : Нет
Forced : Нет
Меню
00:00:00.000 : en:Opening Credits
00:02:03.000 : en:Sudden Terror
00:03:36.000 : en:Mornin' Private
00:07:39.000 : en:Topic of Conversation
00:15:30.000 : en:Offer of a Lifetime
00:19:02.000 : en:...and so it Begins
00:21:19.000 : en:Love Letters
00:24:38.000 : en:The Campaign Challenge
00:27:50.000 : en:Heart to Heart
00:32:46.000 : en:Going to Chicago
00:37:44.000 : en:1983 - The Campaign Trail
00:39:44.000 : en:1793 - Contrasts
00:50:09.000 : en:Two Weeks in Chile
00:53:10.000 : en:Sightings and Sanctuary
00:59:43.000 : en:Breaking Bread
01:02:41.000 : en:Final Journey
01:08:35.000 : en:Work Harder
01:13:43.000 : en:Contact
01:17:33.000 : en:Searching for Answers
01:21:34.000 : en:Victory Speech
01:28:35.000 : en:Apologies
01:36:45.000 : en:Keep Fighting
01:40:29.000 : en:Closing Credits
-

_________________
Показать сообщения:    

Текущее время: Сегодня 13:08

Часовой пояс: GMT



Вы не можете начинать темы
Вы не можете отвечать на сообщения
Вы не можете редактировать свои сообщения
Вы не можете удалять свои сообщения
Вы не можете голосовать в опросах
Вы не можете прикреплять файлы к сообщениям
Вы не можете скачивать файлы