Важное объявление!
У Нас Все раздачи мультитрекерные, при нуле пиров в релизах, можете смело вставать на закачку!
 
Автор Сообщение

HUNTER

Стаж:
4 года 4 месяца
Сообщений:
56790

Репутация: 101

[+] [-]
Вне форума [Профиль] [ЛС]

Про Любовь
Страна: Россия
Жанр: Комедия
Год выпуска: 2015
Продолжительность: 2015-Перевод: Не требуется
Cубтитры: нет
Оригинальная аудиодорожка: русский
Режиссер: Анна Меликян
В ролях: Рената Литвинова, Михаил Ефремов, Мария Шалаева, Василий Ракша, Юлия Снигирь, Владимир Машков, Алексей Филимонов, Евгений Цыганов, Александра Бортич, Мария Данилюк-Описание: Что такое любовь? На этот вопрос пытаются ответить герои фильма. Вереница самых разных персонажей и историй переплетаются в этом фильме. Маленькие истории о самом разном и все о любви: молодая пара, предпочитающая жить в образах японских аниме-героев; секретарша, получившая непристойное предложение от своего босса; японка, приехавшая в Москву в поисках русского мужчины; художник-граффити в поисках красоты; бывшая жена, нанятая своим мужем для необычного задания и многое другое.-Релиз от:
-Тип релиза: WEB-DL 1080p
Контейнер: MKV-Видео: MPEG4 Video (H264) 1920x804p, ~ 4277 kbps, 24 fps-Аудио: 48 kHz, AC3, 3/2 (L,C,R,l,r) + LFE ch, ~384.00 kbps avg

MediaInfo

General
Уникальный идентификатор : 250263947061304860531787862473491496397 (0xBC47153D2ADCA511A8D9A73E1E3E3DCD)
Полное имя : D:\Pro_lyubov_WEB_DL_1080p.mkv
Формат : Matroska
Версия формата : Version 4 / Version 2
Размер файла : 3.83 GiB
Продолжительность : 1h 55mn
Общий поток : 4 756 Kbps
Название фильма : Про_Любовь_2015_WEB_DL_1080p-BLUEBIRD
Дата кодирования : UTC 2016-01-05 08:55:18
Программа кодирования : mkvmerge v8.5.0 ('Vanishing Act') 32bit
Библиотека кодирования : libebml v1.3.1 + libmatroska v1.4.2
DURATION : 01:55:15.904000000
NUMBER_OF_FRAMES : 216122
NUMBER_OF_BYTES : 331963392
_STATISTICS_WRITING_APP : mkvmerge v8.5.0 ('Vanishing Act') 32bit
_STATISTICS_WRITING_DATE_UTC : 2016-01-05 08:55:18
_STATISTICS_TAGS : BPS DURATION NUMBER_OF_FRAMES NUMBER_OF_BYTES
Video
Идентификатор : 1
Формат : AVC
Формат/Информация : Advanced Video Codec
Профиль формата : High@L4.0
Параметр CABAC формата : Yes
Параметр ReFrames формата : 5 frames
Идентификатор кодека : V_MPEG4/ISO/AVC
Продолжительность : 1h 55mn
Битрейт : 4 277 Kbps
Ширина : 1 920 pixels
Высота : 804 pixels
Соотношение сторон : 2.40:1
Режим частоты кадров : Constant
Частота кадров : 24.000 fps
Цветовое пространство : YUV
Субдискретизация насыщенности : 4:2:0
Битовая глубина : 8 bits
Тип развёртки : Progressive
Бит/(Пиксели*Кадры) : 0.115
Размер потока : 3.44 GiB (90%)
Заголовок : ABT_LV_2015_WEB_DL_1080p-BLUEBIRD
Язык : Russian
Default : Yes
Forced : No
Основные цвета : BT.709
Характеристики трансфера : BT.709
Коэффициенты матрицы : BT.709
colour_range : Limited
Audio
Идентификатор : 2
Формат : AC-3
Формат/Информация : Audio Coding 3
Расширение режима : CM (complete main)
Параметр Endianness формата : Big
Идентификатор кодека : A_AC3
Продолжительность : 1h 55mn
Вид битрейта : Constant
Битрейт : 384 Kbps
Каналы : 6 channels
Расположение каналов : Front: L C R, Side: L R, LFE
Частота : 48.0 KHz
Битовая глубина : 16 bits
Метод сжатия : Lossy
Задержка видео : 42ms
Размер потока : 317 MiB (8%)
Заголовок : iTunes
Язык : Russian
Default : Yes
Forced : No
Menu
00:00:00.000 : en:Chapter 01
00:05:38.000 : en:Chapter 02
00:11:10.000 : en:Chapter 03
00:16:51.000 : en:Chapter 04
00:23:34.000 : en:Chapter 05
00:29:21.000 : en:Chapter 06
00:36:09.000 : en:Chapter 07
00:41:25.000 : en:Chapter 08
00:47:23.000 : en:Chapter 09
00:54:03.000 : en:Chapter 10
00:59:51.000 : en:Chapter 11
01:04:52.000 : en:Chapter 12
01:10:14.000 : en:Chapter 13
01:16:19.000 : en:Chapter 14
01:21:49.000 : en:Chapter 15
01:27:57.000 : en:Chapter 16
01:33:51.000 : en:Chapter 17
01:39:34.000 : en:Chapter 18
01:45:35.000 : en:Chapter 19

Скриншоты


_________________
Показать сообщения:    

Текущее время: Сегодня 13:00

Часовой пояс: GMT



Вы не можете начинать темы
Вы не можете отвечать на сообщения
Вы не можете редактировать свои сообщения
Вы не можете удалять свои сообщения
Вы не можете голосовать в опросах
Вы не можете прикреплять файлы к сообщениям
Вы не можете скачивать файлы