Важное объявление!
У Нас Все раздачи мультитрекерные, при нуле пиров в релизах, можете смело вставать на закачку!
 
Автор Сообщение

HUNTER

Стаж:
4 года 4 месяца
Сообщений:
56722

Репутация: 101

[+] [-]
Вне форума [Профиль] [ЛС]

Приятель Джои / Pal Joey-
Год выпуска: 1957
Страна: США
Жанр: мюзикл, мелодрама, комедия
Продолжительность: 01:49:07
Перевод:
  • Профессиональный (многоголосый закадровый)
  • Авторский (одноголосый закадровый) Григорий Либергал, "Имидж-Арт"
    Оригинальная аудиодорожка: Английская
    Cубтитры: Английские (полные, для слабослышащих)-Режиссер: Джордж Сидни / George Sidney
    В ролях: Рита Хэйворт, Фрэнк Синатра, Ким Новак, Барбара Николс, Бобби Шервуд, Хэнк Генри, Элизабет Паттерсон, Франклин Фэрнум, Бесс Флауэрс, Пьер Уаткин-Описание:
    Экранизация знаменитого бродвейского мюзикла.
    Шикарная комедия с Фрэнком Синатрой в роли отчаянного ловеласа Джои, любителя блондинок и брюнеток, толстых и худых, молодых и не очень. Скрываясь от очередного обманутого мужа в маленьком городе, он становится постановщиком ревю и соблазняет и спонсора постановки Веру Симпсон и главную звезду Линду.-За дорожки спасибо hedgehot и palmeiras.
    | | Сэмпл-Качество: BDRip 720p (VietHD)
    Контейнер: MKV
    Видео: 1280x694 (1.85:1), 23.976 fps, 10655 kbps
    Аудио 1: Русский AC3 2.0, 48 kHz, 192 kbps — MVO
    Аудио 2: Русский AC3 2.0, 48 kHz, 192 kbps — Либергал
    Аудио 3: Английский AC3 5.1, 48 kHz, 640 kbps
    Формат субтитров: softsub (SRT)

    MI

    nfo
    MOVIE iNFO
    GENRE.........: Drama | Musical | Romance
    IMDB RATING...: 6,9/10 from 2.877 users
    LINK..........: http://www.imdb.com/title/tt0050815/
    RELEASE iNFO
    RELEASE NAME..: Pal.Joey.1957.720p.BluRay.DD5.1.x264-VietHD
    RELEASE SIZE..: 8.61 GiB
    RUNTIME.......: 1h 49mn
    VIDEO CODEC...: x264, crf=18.2, High@L4.1
    FRAMERATE.....: 23.976 fps
    BITRATE.......: 10.4 Mbps
    RESOLUTION....: 1280 x 694
    AUDIO.........: English AC3 5.1 @ 640Kbps
    CHAPTERS......: Included
    SUBTITLES.....: English SDH (.srt)
    SOURCE........: Pal.Joey.1957.1080p.Blu-ray.AVC.DTS-HD.MA.5.1
    Encoder.......: TranVietDuc
    Release Date..: 18/08/2014
    NOTES
    SCREENS: http://someimage.com/z4Wi
    x264 iNFO
    x264 [info]: frame I:929 Avg QP:18.93 size:125374
    x264 [info]: frame P:27786 Avg QP:19.63 size: 70069
    x264 [info]: frame B:128269 Avg QP:20.87 size: 51899
    x264 [info]: consecutive B-frames: 0.8% 0.4% 2.8% 6.8% 11.6% 62.5%
    7.7% 2.8% 2.8% 2.0%
    encoded 156984 frames, 5.82 fps, 10654.86 kb/s
    General
    Unique ID : 253484022002761182166358807644772265271 (0xBEB33F30E60923C0B8CBB3889AF06D37)
    Complete name : Pal.Joey.1957.720p.BluRay.DD.x264-VietHD.mkv
    Format : Matroska
    Format version : Version 2
    File size : 8.90 GiB
    Duration : 1h 49mn
    Overall bit rate : 11.7 Mbps
    Movie name : Pal Joey / Приятель Джои (1957) – RuTracker
    Encoded date : UTC 2014-08-21 20:31:00
    Writing application : mkvmerge v7.0.0 ('Where We Going') 64bit built on Jun 9 2014 15:16:27
    Writing library : libebml v1.3.0 + libmatroska v1.4.1
    Attachment : Yes
    Video
    ID : 1
    Format : AVC
    Format/Info : Advanced Video Codec
    Format profile : High@L4.1
    Format settings, CABAC : Yes
    Format settings, ReFrames : 9 frames
    Codec ID : V_MPEG4/ISO/AVC
    Duration : 1h 49mn
    Bit rate : 10.4 Mbps
    Width : 1 280 pixels
    Height : 694 pixels
    Display aspect ratio : 1.85:1
    Frame rate mode : Constant
    Frame rate : 23.976 fps
    Color space : YUV
    Chroma subsampling : 4:2:0
    Bit depth : 8 bits
    Scan type : Progressive
    Bits/(Pixel*Frame) : 0.489
    Stream size : 7.95 GiB (89%)
    Title : Pal.Joey.1957.720p.BluRay.DD5.1.x264-VietHD
    Writing library : x264 core 133 r2334 a3ac64b
    Encoding settings : cabac=1 / ref=9 / deblock=1:-3:-3 / analyse=0x3:0x133 / me=umh / subme=10 / psy=1 / psy_rd=1.20:0.00 / mixed_ref=1 / me_range=24 / chroma_me=1 / trellis=2 / 8x8dct=1 / cqm=0 / deadzone=21,11 / fast_pskip=1 / chroma_qp_offset=-2 / threads=12 / lookahead_threads=2 / sliced_threads=0 / nr=0 / decimate=1 / interlaced=0 / bluray_compat=0 / constrained_intra=0 / bframes=9 / b_pyramid=2 / b_adapt=2 / b_bias=0 / direct=3 / weightb=1 / open_gop=0 / weightp=2 / keyint=250 / keyint_min=23 / scenecut=40 / intra_refresh=0 / rc=crf / mbtree=0 / crf=18.2 / qcomp=0.67 / qpmin=0 / qpmax=69 / qpstep=4 / ip_ratio=1.23 / pb_ratio=1.15 / aq=2:0.70
    Language : English
    Default : Yes
    Forced : No
    Matrix coefficients : BT.709
    Audio #1
    ID : 2
    Format : AC-3
    Format/Info : Audio Coding 3
    Mode extension : CM (complete main)
    Format settings, Endianness : Big
    Codec ID : A_AC3
    Duration : 1h 49mn
    Bit rate mode : Constant
    Bit rate : 192 Kbps
    Channel(s) : 2 channels
    Channel positions : Front: L R
    Sampling rate : 48.0 KHz
    Bit depth : 16 bits
    Compression mode : Lossy
    Stream size : 150 MiB (2%)
    Title : MVO
    Language : Russian
    Default : Yes
    Forced : No
    Audio #2
    ID : 3
    Format : AC-3
    Format/Info : Audio Coding 3
    Mode extension : CM (complete main)
    Format settings, Endianness : Big
    Codec ID : A_AC3
    Duration : 1h 49mn
    Bit rate mode : Constant
    Bit rate : 192 Kbps
    Channel(s) : 2 channels
    Channel positions : Front: L R
    Sampling rate : 48.0 KHz
    Bit depth : 16 bits
    Compression mode : Lossy
    Stream size : 150 MiB (2%)
    Title : AVO – Г. Либергал (Имидж-Арт)
    Language : Russian
    Default : No
    Forced : No
    Audio #3
    ID : 4
    Format : AC-3
    Format/Info : Audio Coding 3
    Mode extension : CM (complete main)
    Format settings, Endianness : Big
    Codec ID : A_AC3
    Duration : 1h 49mn
    Bit rate mode : Constant
    Bit rate : 640 Kbps
    Channel(s) : 6 channels
    Channel positions : Front: L C R, Side: L R, LFE
    Sampling rate : 48.0 KHz
    Bit depth : 16 bits
    Compression mode : Lossy
    Stream size : 500 MiB (5%)
    Title : Original
    Language : English
    Default : No
    Forced : No
    Text #1
    ID : 5
    Format : UTF-8
    Codec ID : S_TEXT/UTF8
    Codec ID/Info : UTF-8 Plain Text
    Language : English
    Default : No
    Forced : No
    Text #2
    ID : 6
    Format : UTF-8
    Codec ID : S_TEXT/UTF8
    Codec ID/Info : UTF-8 Plain Text
    Title : SDH
    Language : English
    Default : No
    Forced : No
    Menu
    00:00:00.000 : en:Chapter 01
    00:15:29.136 : en:Chapter 02
    00:23:41.211 : en:Chapter 03
    00:30:25.782 : en:Chapter 04
    00:38:27.596 : en:Chapter 05
    00:44:42.262 : en:Chapter 06
    00:56:39.813 : en:Chapter 07
    01:05:21.042 : en:Chapter 08
    01:11:22.069 : en:Chapter 09
    01:23:09.275 : en:Chapter 10
    01:36:48.093 : en:Chapter 11
    01:42:22.594 : en:Chapter 12

  • _________________
    Показать сообщения:    

    Текущее время: Сегодня 10:52

    Часовой пояс: GMT



    Вы не можете начинать темы
    Вы не можете отвечать на сообщения
    Вы не можете редактировать свои сообщения
    Вы не можете удалять свои сообщения
    Вы не можете голосовать в опросах
    Вы не можете прикреплять файлы к сообщениям
    Вы не можете скачивать файлы