Важное объявление!
У Нас Все раздачи мультитрекерные, при нуле пиров в релизах, можете смело вставать на закачку!
 
Автор Сообщение

HUNTER

Стаж:
4 года 4 месяца
Сообщений:
56790

Репутация: 101

[+] [-]
Вне форума [Профиль] [ЛС]

Приходите завтра-
Страна: СССР
Студия: Одесская киностудия художественных фильмов
Жанр: мелодрама, комедия
Год выпуска: 1963
Продолжительность: 01:36:44-Перевод: Не требуется
Cубтитры: нет
Оригинальная аудиодорожка: русский-Режиссер: Евгений Ташков-В ролях: Анатолий Папанов, Екатерина Савинова, Борис Бибиков, Антонина Максимова, Юрий Горобец, Надежда Животова, Александр Ширвиндт, Юрий Белов, Александра Денисова, Борис Коковкин.-Описание: Простая и обаятельная девушка Фрося Бурлакова приезжает из сибирской деревушки в Москву, чтобы поступать в консерваторию. У Фроси сильный и красивый голос, она подвижна и артистична, а потому ее заветная мечта- стать знаменитой певицей – должна непременно сбыться. Прием в консерваторию уже закончен, но Фрося не собирается опускать руки. Проводя в консерватории не один день, Фрося все же добивается, чтобы ее прослушал известный профессор...-Доп. информация:

Полная реставрация изображения и звука. Исходные киноматериалы подготовлены Госфильмофондом России. Покадровая цифровая реставрация изображения, ремастеринг звука и авторинг проведены объединением «Крупный план».-Скачать сэмпл-Тип релиза: BDRip 1080p
Контейнер: MKV-Видео: MPEG-4 AVC, 10.3 Мбит/с, 1424х1072, 23.976 кадр/с
Видео кодек: H.264
Аудио кодек: DTS,AС3
Аудио 1: Russian: DTS / 6 ch / 48 kHz / 1536 kbps / 24-bit
Аудио 2: Russian: AС3 / 1 ch / 48 kHz / 224 kbps / 16-bit
-MediaInfo
General
Unique ID : 206295213328482453721807431768678699189 (0x9B33034BAA43A2A0BA6DA2C76C3990B5)
Complete name : C:\Users\1\Desktop\Новая папка (7)\Приходите завтра 1962.x264.BDRip.1080p.mkv
Format : Matroska
Format version : Version 4 / Version 2
File size : 8.10 GiB
Duration : 1h 36mn
Overall bit rate : 12.0 Mbps
Encoded date : UTC 2014-06-09 21:58:07
Writing application : mkvmerge v6.9.1 ('Blue Panther') 64bit built on Apr 18 2014 18:23:38
Writing library : libebml v1.3.0 + libmatroska v1.4.1
Video
ID : 1
Format : AVC
Format/Info : Advanced Video Codec
Format profile : High@L4.1
Format settings, CABAC : Yes
Format settings, ReFrames : 5 frames
Codec ID : V_MPEG4/ISO/AVC
Duration : 1h 36mn
Bit rate : 10.3 Mbps
Width : 1 424 pixels
Height : 1 072 pixels
Display aspect ratio : 4:3
Frame rate mode : Constant
Frame rate : 23.976 fps
Color space : YUV
Chroma subsampling : 4:2:0
Bit depth : 8 bits
Scan type : Progressive
Bits/(Pixel*Frame) : 0.280
Stream size : 6.77 GiB (84%)
Writing library : x264 core 112 r1867 22bfd31
Encoding settings : cabac=1 / ref=5 / deblock=1:-3:-3 / analyse=0x3:0x133 / me=umh / subme=10 / psy=1 / psy_rd=1.05:0.10 / mixed_ref=1 / me_range=32 / chroma_me=1 / trellis=2 / 8x8dct=1 / cqm=0 / deadzone=21,11 / fast_pskip=1 / chroma_qp_offset=-3 / threads=6 / sliced_threads=0 / nr=0 / decimate=1 / interlaced=0 / constrained_intra=0 / bframes=6 / b_pyramid=2 / b_adapt=2 / b_bias=0 / direct=3 / weightb=1 / open_gop=0 / weightp=2 / keyint=250 / keyint_min=23 / scenecut=40 / intra_refresh=0 / rc_lookahead=40 / rc=2pass / mbtree=1 / bitrate=10256 / ratetol=1.0 / qcomp=0.60 / qpmin=10 / qpmax=51 / qpstep=4 / cplxblur=20.0 / qblur=0.5 / vbv_maxrate=50000 / vbv_bufsize=62500 / nal_hrd=none / ip_ratio=1.40 / aq=1:1.00
Default : No
Forced : No
Audio #1
ID : 2
Format : DTS
Format/Info : Digital Theater Systems
Mode : 16
Format settings, Endianness : Big
Codec ID : A_DTS
Duration : 1h 36mn
Bit rate mode : Constant
Bit rate : 1 509 Kbps
Channel(s) : 6 channels
Channel positions : Front: L C R, Side: L R, LFE
Sampling rate : 48.0 KHz
Bit depth : 24 bits
Compression mode : Lossy
Stream size : 1.02 GiB (13%)
Title : DTS
Language : Russian
Default : No
Forced : No
Audio #2
ID : 3
Format : AC-3
Format/Info : Audio Coding 3
Mode extension : CM (complete main)
Format settings, Endianness : Big
Codec ID : A_AC3
Duration : 1h 36mn
Bit rate mode : Constant
Bit rate : 224 Kbps
Channel(s) : 1 channel
Channel positions : Front: C
Sampling rate : 48.0 KHz
Bit depth : 16 bits
Compression mode : Lossy
Stream size : 155 MiB (2%)
Title : AС3
Language : Russian
Default : No
Forced : No
Интересно
Сценарий написан режиссёром Е. И. Ташковым совместно с супругой Е. Ф. Савиновой и включает некоторые факты автобиографии актрисы.
Скриншоты

_________________
Показать сообщения:    

Текущее время: Сегодня 18:38

Часовой пояс: GMT



Вы не можете начинать темы
Вы не можете отвечать на сообщения
Вы не можете редактировать свои сообщения
Вы не можете удалять свои сообщения
Вы не можете голосовать в опросах
Вы не можете прикреплять файлы к сообщениям
Вы не можете скачивать файлы