Важное объявление!
У Нас Все раздачи мультитрекерные, при нуле пиров в релизах, можете смело вставать на закачку!
 
Автор Сообщение

HUNTER

Стаж:
4 года 4 месяца
Сообщений:
56829

Репутация: 101

[+] [-]
Вне форума [Профиль] [ЛС]

Принцесса Лебедь 3: Тайна заколдованного королевства
The Swan Princess: The Mystery of the Enchanted Treasure
Страна: США
Жанр: мультфильм, фэнтези, детектив, семейный
Продолжительность: 01:12:50
Год выпуска: 1998-Перевод: Профессиональный (дублированный) ВидеоСервис
Русские субтитры: есть
Режиссёр: Ричард Рич / Richard Rich-Роли озвучивали: Мишель Никастро, Брайан Ниссен, Катя Зох, Джозеф Медрано, Кристи Лэндерс, Дональд Сэйдж Маккэй, Даг Стоун, Стив Винович, Пол Масоснсон, Оуэн Миллер-Описание: Жители королевства с нетерпением ждут ежегодного праздника, на котором каждый может попытать счастья в различных конкурсах, состязаниях и выиграть первый приз. Принц Дерек и принцесса Одетт заканчивают последние приготовления к грандиозному торжеству.
Но среди гостей не все настроены веселиться. Коварная Зельда приехала на праздник, чтобы завладеть тайной формулой запретного колдовства, спрятанной в недрах Замка. Для этого она похищает Одетт, и принц Дерек со своими давними друзьями снова отправляется в опасное и увлекательное путешествие…-Релиз: | | -• Спасибо Dreven за WEB-DL 1080p исходник.-Качество: WEB-DLRip
Формат: AVI
Видео: 704x400 (1.76:1), 23,976 fps, XviD 65 ~2 278 kbps avg, 0.34 bit/pixel
Аудио: 48 kHz, AC3 Dolby Digital, 2/0 (L,R) ch, ~192 kbps |MVO|
Аудио: 48 kHz, AC3 Dolby Digital, 2/0 (L,R) ch, ~192 kbps |ENG|
Субтитры: Russian, English [srt]

MI


Общее
Полное имя : E:\incarcare\rip gata\The.Swan.Princess.III.1998.WEB-DLRip\The.Swan.Princess.III.1998.WEB-DLRip.avi
Формат : AVI
Формат/Информация : Audio Video Interleave
Размер файла : 1,36 Гбайт
Продолжительность : 1 ч. 12 м.
Общий поток : 2676 Кбит/сек
Программа кодирования : VirtualDubMod 1.5.10.2 (build 2540/release)
Библиотека кодирования : VirtualDubMod build 2540/release
Видео
Идентификатор : 0
Формат : MPEG-4 Visual
Профиль формата : Advanced Simple@L5
Параметр BVOP формата : 1
Параметр QPel формата : Нет
Параметр GMC формата : Без точки перехода
Параметр матрицы формата : Выборочная
Идентификатор кодека : XVID
Идентификатор кодека/Подсказка : XviD
Продолжительность : 1 ч. 12 м.
Битрейт : 2278 Кбит/сек
Ширина : 704 пикселя
Высота : 400 пикселей
Соотношение сторон : 16:9
Частота кадров : 23,976 кадра/сек
Цветовое пространство : YUV
Субдискретизация насыщенности : 4:2:0
Битовая глубина : 8 бит
Тип развёртки : Прогрессивная
Метод сжатия : С потерями
Бит/(Пиксели*Кадры) : 0.337
Размер потока : 1,16 Гбайт (85%)
Библиотека кодирования : XviD 65
Аудио #1
Идентификатор : 1
Формат : AC-3
Формат/Информация : Audio Coding 3
Расширение режима : CM (complete main)
Параметр Endianness формата : Big
Идентификатор кодека : 2000
Продолжительность : 1 ч. 12 м.
Вид битрейта : Постоянный
Битрейт : 192 Кбит/сек
Каналы : 2 канала
Расположение каналов : Front: L R
Частота : 48,0 КГц
Метод сжатия : С потерями
Размер потока : 100 Мбайт (7%)
Выравнивание : Разделение по промежуткам
Продолжительность промежутка : 42 мс. (1,00 видеокадр)
Время предзагрузки промежутка : 500 мс.
Аудио #2
Идентификатор : 2
Формат : AC-3
Формат/Информация : Audio Coding 3
Расширение режима : CM (complete main)
Параметр Endianness формата : Big
Идентификатор кодека : 2000
Продолжительность : 1 ч. 12 м.
Вид битрейта : Постоянный
Битрейт : 192 Кбит/сек
Каналы : 2 канала
Расположение каналов : Front: L R
Частота : 48,0 КГц
Метод сжатия : С потерями
Размер потока : 100 Мбайт (7%)
Выравнивание : Разделение по промежуткам
Продолжительность промежутка : 42 мс. (1,00 видеокадр)
Время предзагрузки промежутка : 500 мс.

Скриншоты


_________________
Показать сообщения:    

Текущее время: Сегодня 12:41

Часовой пояс: GMT



Вы не можете начинать темы
Вы не можете отвечать на сообщения
Вы не можете редактировать свои сообщения
Вы не можете удалять свои сообщения
Вы не можете голосовать в опросах
Вы не можете прикреплять файлы к сообщениям
Вы не можете скачивать файлы