Важное объявление!
У Нас Все раздачи мультитрекерные, при нуле пиров в релизах, можете смело вставать на закачку!
 
Автор Сообщение

HUNTER

Стаж:
4 года 4 месяца
Сообщений:
56733

Репутация: 101

[+] [-]
Вне форума [Профиль] [ЛС]

Принцесса Лебедь 3: Тайна заколдованного королевства / The Swan Princess: The Mystery of the Enchanted Treasure
Страна: США
Жанр: фэнтези
Продолжительность: 01:12:50
Год выпуска: 1998
Перевод: Профессиональный (дублированный) ВидеоСервис
Русские субтитры: есть
Режиссёр: Ричард Рич / Richard Rich
Описание: Жители королевства с нетерпением ждут ежегодного праздника, на котором каждый может попытать счастья в различных конкурсах, состязаниях и выиграть первый приз. Принц Дерек и принцесса Одетт заканчивают последние приготовления к грандиозному торжеству.
Но среди гостей не все настроены веселиться. Коварная Зельда приехала на праздник, чтобы завладеть тайной формулой запретного колдовства, спрятанной в недрах Замка. Для этого она похищает Одетт, и принц Дерек со своими давними друзьями снова отправляется в опасное и увлекательное путешествие…
Дополнительная информация: 5.1 с DVD дутые, во всех каналах звучит речь.
Семпл: http://sendfile.su/1130666
Качество: WEB-DL 1080p
Формат: MKV
Видео: 1880x1072 (16:9), 23.976 fps, AVC, ~5075 Kbps, 0.105 bits/pixel
Аудио 1: Russian, 48.0 KHz, AC3, 2 ch, 192 Kbps - ВидеоСервис
Аудио 2: English, 48.0 KHz, AC3, 2 ch, 192 Kbps
Субтитры: русские, английские

Сравнение с DVD

DVD | WEB-DL


Подробные технические данные

GeneralUnique ID : 236016609719833152512771606164010542893 (0xB18F254640A473D984592A6D8059A72D)Complete name : D:\The Swan Princess The Mystery of the Enchanted Treasure. WEB-DL 1080p.mkvFormat : MatroskaFormat version : Version 4 / Version 2File size : 2.83 GiBDuration : 1h 12mnOverall bit rate : 5 570 KbpsMovie name :Encoded date : UTC 2015-06-21 17:30:10Writing application : mkvmerge v8.0.0 ('Til The Day That I Die') 64bitWriting library : libebml v1.3.1 + libmatroska v1.4.2DURATION : 01:06:40.520000000NUMBER_OF_FRAMES : 909NUMBER_OF_BYTES : 78113_STATISTICS_WRITING_APP : mkvmerge v8.0.0 ('Til The Day That I Die') 64bit_STATISTICS_WRITING_DATE_UT : 2015-06-21 17:30:10_STATISTICS_TAGS : BPS DURATION NUMBER_OF_FRAMES NUMBER_OF_BYTES
VideoID : 1Format : AVCFormat/Info : Advanced Video CodecFormat profile : High@L4Format settings, CABAC : YesFormat settings, ReFrames : 4 framesCodec ID : V_MPEG4/ISO/AVCDuration : 1h 12mnBit rate : 5 075 KbpsWidth : 1 880 pixelsHeight : 1 072 pixelsDisplay aspect ratio : 16:9Frame rate mode : ConstantFrame rate : 23.976 fpsColor space : YUVChroma subsampling : 4:2:0Bit depth : 8 bitsScan type : ProgressiveBits/(Pixel*Frame) : 0.105Stream size : 2.58 GiB (91%)Language : EnglishDefault : YesForced : NoColor range : LimitedColor primaries : BT.709Transfer characteristics : BT.709Matrix coefficients : BT.709
Audio #1ID : 2Format : AC-3Format/Info : Audio Coding 3Mode extension : CM (complete main)Format settings, Endianness : BigCodec ID : A_AC3Duration : 1h 12mnBit rate mode : ConstantBit rate : 192 KbpsChannel(s) : 2 channelsChannel positions : Front: L RSampling rate : 48.0 KHzCompression mode : LossyStream size : 100 MiB (3%)Title : ВидеоСервисLanguage : RussianDefault : YesForced : No
Audio #2ID : 3Format : AC-3Format/Info : Audio Coding 3Mode extension : CM (complete main)Format settings, Endianness : BigCodec ID : A_AC3Duration : 1h 12mnBit rate mode : ConstantBit rate : 192 KbpsChannel(s) : 2 channelsChannel positions : Front: L RSampling rate : 48.0 KHzCompression mode : LossyStream size : 100 MiB (3%)Language : EnglishDefault : NoForced : No
Text #1ID : 4Format : UTF-8Codec ID : S_TEXT/UTF8Codec ID/Info : UTF-8 Plain TextLanguage : RussianDefault : NoForced : No
Text #2ID : 5Format : UTF-8Codec ID : S_TEXT/UTF8Codec ID/Info : UTF-8 Plain TextLanguage : EnglishDefault : NoForced : No
Menu00:00:00.000 : en:100:07:16.000 : en:200:16:47.000 : en:300:26:51.000 : en:400:30:44.000 : en:500:35:57.000 : en:600:41:46.000 : en:700:45:17.000 : en:800:49:15.000 : en:900:54:45.000 : en:1001:00:10.000 : en:1101:06:20.000 : en:12

Скриншоты


_________________
Показать сообщения:    

Текущее время: Сегодня 23:49

Часовой пояс: GMT



Вы не можете начинать темы
Вы не можете отвечать на сообщения
Вы не можете редактировать свои сообщения
Вы не можете удалять свои сообщения
Вы не можете голосовать в опросах
Вы не можете прикреплять файлы к сообщениям
Вы не можете скачивать файлы