Важное объявление!
У Нас Все раздачи мультитрекерные, при нуле пиров в релизах, можете смело вставать на закачку!
 
Автор Сообщение

димитри37

Стаж:
3 года 8 месяцев
Сообщений:
1237

Репутация: 127

[+] [-]
Вне форума [Профиль] [ЛС]

Примесь / Upstream Color
Страна: США / Hazazah Pictures, Orange Film, BNN TV
Жанр: драма, фантастика
Год выпуска: 2013
Продолжительность: 01:36:03
Перевод: Одноголосый закадровый [Andi]
Cубтитры: английские (SDH)
Оригинальная аудиодорожка: английский
Режиссер: Шэйн Кэррат / Shane Carruth
В ролях: Эми Сейметц, Шэйн Кэррат, Эндрю Сенсениг, Тьяго Мартинс, Кэти Кэррат, Мередит Бурк, Андреон Уотсон, Эштон Мирамонтес, Майлс МакГи, Фрэнк Мосли
Описание: Мужчина и женщина сближаются друг с другом, запутавшись в жизненном цикле нестареющего организма
.

Качество видео: BDRip 720p [AMIABLE]
Формат видео: MKV
Видео: MPEG-4 AVC, 5004 Kбит/с, 1280x544
Аудио: AC3, 6 ch, 448 Кбит/с (RUS)
Аудио 2: DTS, 6 ch, 1510 Кбит/с (ENG)

MediaInfo

Format : Matroska
Format version : Version 2
File size : 4.67 GiB
Duration : 1h 36mn
Overall bit rate : 6 964 Kbps
Movie name : Odessit & UaTracker.net
Encoded date : UTC 2013-05-17 16:37:48
Writing application : mkvmerge v5.8.0 ('No Sleep / Pillow') built on Sep 2 2012 15:37:04
Writing library : libebml v1.2.3 + libmatroska v1.3.0
Video
ID : 1
Format : AVC
Format/Info : Advanced Video Codec
Format profile : High@L4.1
Format settings, CABAC : Yes
Format settings, ReFrames : 5 frames
Codec ID : V_MPEG4/ISO/AVC
Duration : 1h 36mn
Bit rate : 5 004 Kbps
Width : 1 280 pixels
Height : 544 pixels
Display aspect ratio : 2.35:1
Frame rate : 23.976 fps
Color space : YUV
Chroma subsampling : 4:2:0
Bit depth : 8 bits
Scan type : Progressive
Bits/(Pixel*Frame) : 0.300
Stream size : 3.27 GiB (70%)
Writing library : x264 core 130 r2273 b3065e6
Encoding settings : cabac=1 / ref=5 / deblock=1:0:0 / analyse=0x3:0x113 / me=umh / subme=8 / psy=1 / psy_rd=1.00:0.00 / mixed_ref=1 / me_range=16 / chroma_me=1 / trellis=1 / 8x8dct=1 / cqm=0 / deadzone=21,11 / fast_pskip=1 / chroma_qp_offset=-2 / threads=12 / lookahead_threads=2 / sliced_threads=0 / nr=0 / decimate=1 / interlaced=0 / bluray_compat=0 / constrained_intra=0 / bframes=3 / b_pyramid=2 / b_adapt=2 / b_bias=0 / direct=3 / weightb=1 / open_gop=0 / weightp=2 / keyint=240 / keyint_min=24 / scenecut=40 / intra_refresh=0 / rc_lookahead=50 / rc=2pass / mbtree=1 / bitrate=5004 / ratetol=1.0 / qcomp=0.60 / qpmin=0 / qpmax=69 / qpstep=4 / cplxblur=20.0 / qblur=0.5 / ip_ratio=1.40 / aq=1:1.00
Language : English
Audio #1
ID : 2
Format : AC-3
Format/Info : Audio Coding 3
Mode extension : CM (complete main)
Codec ID : A_AC3
Duration : 1h 36mn
Bit rate mode : Constant
Bit rate : 448 Kbps
Channel(s) : 6 channels
Channel positions : Front: L C R, Side: L R, LFE
Sampling rate : 48.0 KHz
Bit depth : 16 bits
Compression mode : Lossy
Stream size : 308 MiB (6%)
Language : Russian
Audio #2
ID : 3
Format : DTS
Format/Info : Digital Theater Systems
Codec ID : A_DTS
Duration : 1h 36mn
Bit rate mode : Constant
Bit rate : 1 510 Kbps
Channel(s) : 6 channels
Channel positions : Front: L C R, Side: L R, LFE
Sampling rate : 48.0 KHz
Bit depth : 24 bits
Compression mode : Lossy
Stream size : 1.01 GiB (22%)
Language : English
Text
ID : 4
Format : UTF-8
Codec ID : S_TEXT/UTF8
Codec ID/Info : UTF-8 Plain Text
Title : SDH
Language : English
Menu
00:00:00.000 : en:00:00:00.000
00:07:34.204 : en:00:07:34.204
00:15:54.370 : en:00:15:54.370
00:25:48.255 : en:00:25:48.255
00:33:53.406 : en:00:33:53.406
00:41:44.752 : en:00:41:44.752
00:50:50.673 : en:00:50:50.673
00:59:08.962 : en:00:59:08.962
01:10:05.284 : en:01:10:05.284
01:14:58.744 : en:01:14:58.744
01:22:23.230 : en:01:22:23.230
01:29:08.635 : en:01:29:08.635

Скриншот c названием фильма

Скриншоты

-
Показать сообщения:    

Текущее время: Сегодня 13:22

Часовой пояс: GMT



Вы не можете начинать темы
Вы не можете отвечать на сообщения
Вы не можете редактировать свои сообщения
Вы не можете удалять свои сообщения
Вы не можете голосовать в опросах
Вы не можете прикреплять файлы к сообщениям
Вы не можете скачивать файлы