Важное объявление!
У Нас Все раздачи мультитрекерные, при нуле пиров в релизах, можете смело вставать на закачку!
 
Автор Сообщение

HUNTER

Стаж:
4 года 4 месяца
Сообщений:
56842

Репутация: 101

[+] [-]
Вне форума [Профиль] [ЛС]


Приключения Флика | Жизнь жуков
A Bug's Life
-
Страна: США
Кинокомпания: Pixar Animation Studios
Жанр: комедия, приключения, семейный
Продолжительность: 01:34:53
Год выпуска: 1998
Перевод: Профессиональный (дублированный) Лицензия
Перевод 2: Профессиональный (двухголосый закадровый) П. Гланц
Перевод 3: Авторский (одноголосый закадровый) Ю. Живов
Русские субтитры: есть
Режиссёр: Джон Лассетер / John Lasseter, Эндрю Стэнтон / Andrew Stanton
Роли озвучивали: Дэйв Фоли, Кевин Спейси, Джулия Луис-Дрейфус, Хайден Панеттьери, Филлис Диллер, Ричард Кайнд, Дэвид Хайд Пирс, Джо Рэнфт, Дэнис Лири, Джонатан Харрис-ОписаниеДействия картины происходят на острове, в колонии муравьев. Среди них особо выделяется изобретатель Флик. Муравьи занимались тем, что собирали дань в виде еды для кузнечиков.
Однажды Флик случайно сбросил в воду всю собранную в виде дани еду. Кузнечики в результате чего увеличили дань. Флик решил противостоять этому. Так началась освободительная борьба муравьев за независимость.
-
Приключения Флика (A Bug's Life) — компьютерный мультфильм компании Pixar Animation Studios. Дистрибьютор Walt Disney Pictures.
Сэмпл

IMDb: 7.20 (179 264)
Качество: BDRip-AVC Blu-Ray Disc 1080p
Формат: MKV
Видео: AVC 3114 Kbps 1152 x 490 (2.351) 23.976 fps
Аудио: AC-3 384 Kbps 6 channels, 48.0 KHz Dub
Аудио 2: AC-3 384 Kbps 6 channels, 48.0 KHz DVO П. Гланц
Аудио 3: AC-3 384 Kbps 6 channels, 48.0 KHz AVO Ю. Живов
Аудио 4: AC-3 EX 384 Kbps 6 channels, 48.0 KHz Eng
Субтитры: Rus, Enf SRT

MI | Log

Log
x264 [info]: frame I:1392 Avg QP:15.88 size:137416
x264 [info]: frame P:37753 Avg QP:18.04 size: 29512
x264 [info]: frame B:97366 Avg QP:21.15 size: 10023
x264 [info]: consecutive B-frames: 4.5% 4.1% 21.7% 36.4% 12.2% 17.6% 1.4% 1.1% 0.4% 0.1% 0.1% 0.1% 0.0% 0.1% 0.2%
x264 [info]: mb I I16..4: 5.8% 54.6% 39.6%
x264 [info]: mb P I16..4: 0.6% 7.9% 2.6% P16..4: 22.4% 22.9% 14.5% 4.5% 1.1% skip:23.5%
x264 [info]: mb B I16..4: 0.1% 1.4% 0.5% B16..8: 22.3% 15.9% 4.8% direct: 4.5% skip:50.5% L0:39.4% L1:42.9% BI:17.7%
x264 [info]: 8x8 transform intra:67.9% inter:44.5%
x264 [info]: direct mvs spatial:99.9% temporal:0.1%
x264 [info]: coded y,uvDC,uvAC intra: 90.0% 94.7% 86.4% inter: 17.3% 19.6% 11.4%
x264 [info]: i16 v,h,dc,p: 20% 19% 7% 54%
x264 [info]: i8 v,h,dc,ddl,ddr,vr,hd,vl,hu: 10% 10% 7% 9% 12% 12% 13% 12% 15%
x264 [info]: i4 v,h,dc,ddl,ddr,vr,hd,vl,hu: 11% 9% 5% 9% 15% 13% 14% 11% 14%
x264 [info]: i8c dc,h,v,p: 46% 20% 15% 18%
x264 [info]: Weighted P-Frames: Y:3.9% UV:3.4%
x264 [info]: ref P L0: 52.8% 9.2% 13.7% 5.7% 4.4% 3.5% 2.8% 1.7% 1.5% 1.4% 1.3% 1.5% 0.4% 0.0%
x264 [info]: ref B L0: 73.2% 9.5% 5.6% 2.9% 2.4% 1.9% 1.5% 1.0% 1.0% 0.7% 0.3%
x264 [info]: ref B L1: 92.4% 7.6%
x264 [info]: kb/s:3205.43
x264 [total]: encoded 136511 frames, 9.79 fps, 3205.43 kb/s, duration 3:52:24.16
Format                                   : MatroskaFormat version                           : Version 4 / Version 2File size                                : 3.14 GiBDuration                                 : 1h 34mnOverall bit rate                         : 4 745 KbpsEncoded date                             : UTC 2015-02-01 22:32:35Writing application                      : mkvmerge v6.7.0 ('Back to the Ground') 32bit built on Jan  8 2014 15:03:17Writing library                          : libebml v1.3.0 + libmatroska v1.4.1
VideoID : 1Format : AVCFormat/Info : Advanced Video CodecFormat profile : High@L4.1Format settings, CABAC : YesFormat settings, ReFrames : 12 framesCodec ID : V_MPEG4/ISO/AVCDuration : 1h 34mnBit rate : 3 114 KbpsWidth : 1 152 pixelsHeight : 490 pixelsDisplay aspect ratio : 2.35:1Frame rate mode : ConstantFrame rate : 23.976 fpsColor space : YUVChroma subsampling : 4:2:0Bit depth : 8 bitsScan type : ProgressiveBits/(Pixel*Frame) : 0.230Stream size : 2.06 GiB (66%)Title : A Bug's Life [rutracker.org]Writing library : x264 core 144 r2525kMod 40bb568Encoding settings : cabac=1 / ref=12 / deblock=1:-2:-1 / analyse=0x3:0x133 / me=umh / subme=11 / psy=1 / fade_compensate=0.00 / psy_rd=1.00:0.05 / mixed_ref=1 / me_range=32 / chroma_me=1 / trellis=2 / 8x8dct=1 / cqm=0 / deadzone=21,11 / fast_pskip=0 / chroma_qp_offset=-3 / threads=12 / lookahead_threads=3 / sliced_threads=0 / nr=0 / decimate=1 / interlaced=0 / bluray_compat=0 / constrained_intra=0 / fgo=0 / bframes=14 / b_pyramid=2 / b_adapt=2 / b_bias=0 / direct=3 / weightb=1 / open_gop=0 / weightp=2 / keyint=250 / keyint_min=23 / scenecut=40 / intra_refresh=0 / rc_lookahead=80 / rc=crf / mbtree=0 / crf=17.0000 / qcomp=0.60 / qpmin=0 / qpmax=69 / qpstep=4 / vbv_maxrate=50000 / vbv_bufsize=62500 / crf_max=0.0 / nal_hrd=none / filler=0 / ip_ratio=1.40 / pb_ratio=1.30 / aq=3:0.90Language : EnglishDefault : YesForced : No
Audio #1ID : 2Format : AC-3Format/Info : Audio Coding 3Mode extension : CM (complete main)Format settings, Endianness : BigCodec ID : A_AC3Duration : 1h 34mnBit rate mode : ConstantBit rate : 384 KbpsChannel(s) : 6 channelsChannel positions : Front: L C R, Side: L R, LFESampling rate : 48.0 KHzBit depth : 16 bitsCompression mode : LossyStream size : 261 MiB (8%)Title : DubLanguage : RussianDefault : YesForced : No
Audio #2ID : 3Format : AC-3Format/Info : Audio Coding 3Mode extension : CM (complete main)Format settings, Endianness : BigCodec ID : A_AC3Duration : 1h 34mnBit rate mode : ConstantBit rate : 384 KbpsChannel(s) : 6 channelsChannel positions : Front: L C R, Side: L R, LFESampling rate : 48.0 KHzBit depth : 16 bitsCompression mode : LossyStream size : 261 MiB (8%)Title : DVO [Glants & Koroleva]Language : RussianDefault : NoForced : No
Audio #3ID : 4Format : AC-3Format/Info : Audio Coding 3Mode extension : CM (complete main)Format settings, Endianness : BigCodec ID : A_AC3Duration : 1h 34mnBit rate mode : ConstantBit rate : 384 KbpsChannel(s) : 6 channelsChannel positions : Front: L C R, Side: L R, LFESampling rate : 48.0 KHzBit depth : 16 bitsCompression mode : LossyStream size : 261 MiB (8%)Title : AVO [U. Jivov]Language : RussianDefault : NoForced : No
Audio #4ID : 5Format : AC-3Format/Info : Audio Coding 3Mode extension : CM (complete main)Format settings, Endianness : BigCodec ID : A_AC3Duration : 1h 34mnBit rate mode : ConstantBit rate : 384 KbpsChannel(s) : 6 channelsChannel positions : Front: L C R, Side: L R, LFESampling rate : 48.0 KHzBit depth : 16 bitsCompression mode : LossyStream size : 261 MiB (8%)Title : EX OriginalLanguage : EnglishDefault : NoForced : No
Text #1ID : 6Format : UTF-8Codec ID : S_TEXT/UTF8Codec ID/Info : UTF-8 Plain TextTitle : FullLanguage : RussianDefault : NoForced : No
Text #2ID : 7Format : UTF-8Codec ID : S_TEXT/UTF8Codec ID/Info : UTF-8 Plain TextTitle : Full [KINOMANIYA]Language : RussianDefault : NoForced : No
Text #3ID : 8Format : UTF-8Codec ID : S_TEXT/UTF8Codec ID/Info : UTF-8 Plain TextLanguage : EnglishDefault : NoForced : No

Скриншоты | Rip vs Source





Source

_________________
Показать сообщения:    

Текущее время: Сегодня 11:37

Часовой пояс: GMT



Вы не можете начинать темы
Вы не можете отвечать на сообщения
Вы не можете редактировать свои сообщения
Вы не можете удалять свои сообщения
Вы не можете голосовать в опросах
Вы не можете прикреплять файлы к сообщениям
Вы не можете скачивать файлы