Важное объявление!
У Нас Все раздачи мультитрекерные, при нуле пиров в релизах, можете смело вставать на закачку!
 
Автор Сообщение

HUNTER

Стаж:
4 года 4 месяца
Сообщений:
56722

Репутация: 101

[+] [-]
Вне форума [Профиль] [ЛС]

Приключения Пикси : Pixies«Их проделки сводят с ума!»
Год выпуска: 2015
Страна: Канада
Жанр: мультфильм, комедия
Продолжительность: 01:17:29
Перевод: Профессиональный (Дублированный) - iTunes
субтитры: отсутствуют-Режиссёр: Шон Патрик О’Рейли : Sean Patrick O'Reilly-Роли озвучивали: Алекса ПенаВега, Кристофер Пламмер, Билл Пэкстон, Карлос ПенаВега, Джофф Густафссон, Элисон Вандзура, Дэвид Милчард, Шон Патрик О’Рейли, Кифер О’Рейли, Эрик Поллинс
Роли дублировали: Татьяна Шитова, Владимир Левашёв, Денис Беспалый, Олег Вирозуб, Александр Гаврилин-Описание: Смешные шалости и хулиганские проказы пиксиков, волшебных эльфов, которые обычно живут глубоко под землей, перевернули жизнь обычного парня Джо Бека вверх дном.- раздача от: -Качество: WEB-DL 720p
Формат: MKV
Видео кодек: AVC
Аудио кодек: AC3
Видео: 1280x720 , 24 fps, ~3900 kbps avg, 0.176 bit/pixel
Аудио #1: [RUS] 48 kHz, AC3 Dolby Digital, 3/2 (L,C,R,l,r) + LFE ch, ~384 kbps avg - DUB
Аудио #2: [ENG] 48 kHz, AC3 Dolby Digital, 2/0 (L,R) ch, ~192 kbps
навигация по главам: 11 глав (именные)

MediaInfo

Общее
Уникальный идентификатор : 192564277666336853375360288793780929454 (0x90DE87E64A1FD32D953F890EE079C3AE)
Полное имя : D:\Приключения Пикси\Pixies.2015.WEB-DL 720p.mkv
Формат : Matroska
Версия формата : Version 4 / Version 2
Размер файла : 2,47 Гбайт
Продолжительность : 1 ч. 17 м.
Общий поток : 4566 Кбит/сек
Дата кодирования : UTC 2015-11-27 06:10:34
Программа кодирования : mkvmerge v6.8.0 ('Theme for Great Cities') 64bit built on Mar 2 2014 21:34:26
Библиотека кодирования : libebml v1.3.0 + libmatroska v1.4.1
Видео
Идентификатор : 1
Формат : AVC
Формат/Информация : Advanced Video Codec
Профиль формата : High@L3.1
Параметр CABAC формата : Нет
Параметр ReFrames формата : 2 кадра
Идентификатор кодека : V_MPEG4/ISO/AVC
Продолжительность : 1 ч. 17 м.
Битрейт : 3900 Кбит/сек
Ширина : 1280 пикселей
Высота : 720 пикселей
Соотношение сторон : 16:9
Режим частоты кадров : Постоянный
Частота кадров : 24,000 кадра/сек
Цветовое пространство : YUV
Субдискретизация насыщенности : 4:2:0
Битовая глубина : 8 бит
Тип развёртки : Прогрессивная
Бит/(Пиксели*Кадры) : 0.176
Размер потока : 2,11 Гбайт (85%)
Язык : English
Default : Да
Forced : Нет
Цветовой диапазон : Limited
Основные цвета : BT.709
Характеристики трансфера : BT.709
Коэффициенты матрицы : BT.709
Аудио #1
Идентификатор : 2
Формат : AC-3
Формат/Информация : Audio Coding 3
Расширение режима : CM (complete main)
Параметр Endianness формата : Big
Идентификатор кодека : A_AC3
Продолжительность : 1 ч. 17 м.
Вид битрейта : Постоянный
Битрейт : 384 Кбит/сек
Каналы : 6 каналов
Расположение каналов : Front: L C R, Side: L R, LFE
Частота : 48,0 КГц
Метод сжатия : С потерями
Размер потока : 213 Мбайт (8%)
Язык : Russian
Default : Да
Forced : Нет
Аудио #2
Идентификатор : 3
Формат : AC-3
Формат/Информация : Audio Coding 3
Расширение режима : CM (complete main)
Параметр Endianness формата : Big
Идентификатор кодека : A_AC3
Продолжительность : 1 ч. 17 м.
Вид битрейта : Постоянный
Битрейт : 192 Кбит/сек
Каналы : 2 канала
Расположение каналов : Front: L R
Частота : 48,0 КГц
Метод сжатия : С потерями
Размер потока : 106 Мбайт (4%)
Язык : English
Default : Нет
Forced : Нет
Меню
00:00:00.000 : en:Глава 1
00:06:04.000 : en:Глава 2
00:13:36.000 : en:Глава 3
00:21:32.000 : en:Глава 4
00:29:20.000 : en:Глава 5
00:35:21.000 : en:Глава 6
00:42:01.000 : en:Глава 7
00:50:22.000 : en:Глава 8
00:57:54.000 : en:Глава 9
01:03:50.000 : en:Глава 10
01:09:39.000 : en:Глава 11

_________________
Показать сообщения:    

Текущее время: Сегодня 10:35

Часовой пояс: GMT



Вы не можете начинать темы
Вы не можете отвечать на сообщения
Вы не можете редактировать свои сообщения
Вы не можете удалять свои сообщения
Вы не можете голосовать в опросах
Вы не можете прикреплять файлы к сообщениям
Вы не можете скачивать файлы