Важное объявление!
У Нас Все раздачи мультитрекерные, при нуле пиров в релизах, можете смело вставать на закачку!
 
Автор Сообщение

HUNTER

Стаж:
4 года 4 месяца
Сообщений:
56733

Репутация: 101

[+] [-]
Вне форума [Профиль] [ЛС]

Приключения мистера Пибоди и Шермана / Mr. Peabody & Sherman«Наперегонки с историей»-
Страна: США
Жанр: мультфильм, фантастика, комедия
Продолжительность: 01:33:07
Год выпуска: 2014
Перевод: Профессиональный (дублированный)
Русские субтитры: есть
Режиссёр: Роб Минкофф / Rob Minkoff
Роли озвучивали: Тай Бурелл, Макс Чарльз, Эриель Винтер, Стефен Колбер, Лесли Манн, Эллисон Дженни, Стэнли Туччи, Том МакГрат, Лэйк Белл, Зак Каллисон
Роли дублировали: Леонид Парфенов, Анна Денисова, Илья Исаев, Сергей Чихачев, Максим Чихачев-ОписаниеМистер Пибоди — бизнесмен, изобретатель, ученый, нобелевский лауреат, гурман, двукратный олимпийский чемпион и гений… который кроме всего прочего является собакой. При помощи своего самого неординарного изобретения — машины ВЕЙБЕК — мистер Пибоди и его приемный сын Шерман мгновенно перемещаются в прошлое, где становятся свидетелями самых важных исторических событий и общаются с известными историческими персонажами. Но когда Шерман нарушает правила путешествий во времени, нашим героям приходится вновь отправиться в путь — на сей раз с целью восстановления цепи исторических событий и спасения будущего. Кроме того, мистеру Пибоди предстоит справиться с самой сложной для него задачей — стать настоящим отцом для Шермана.-Сэмпл

IMDb: 7.00 (15 922)
Качество: WEB-DLRip [Исх WEB-DL 1080p]
Формат: MKV
Видео: AVC 1680 Kbps 960 x 520 (1.846) 23.976 fps
Аудио: AC-3 384 Kbps 6 channels, 48.0 KHz DUB Rus
Аудио 2: AC-3 at 192 Kbps 2 channels, 48.0 KHz Eng
Субтитры: Rus, Eng

Подробные технические данные

Format : MatroskaFormat version : Version 4 / Version 2File size : 1.47 GiBDuration : 1h 33mnOverall bit rate : 2 255 KbpsEncoded date : UTC 2014-07-26 21:33:44Writing application : mkvmerge v6.7.0 ('Back to the Ground') 32bit built on Jan 8 2014 15:03:17Writing library : libebml v1.3.0 + libmatroska v1.4.1
VideoID : 1Format : AVCFormat/Info : Advanced Video CodecFormat profile : High@L4.1Format settings, CABAC : YesFormat settings, ReFrames : 12 framesCodec ID : V_MPEG4/ISO/AVCDuration : 1h 33mnBit rate : 1 680 KbpsWidth : 960 pixelsHeight : 520 pixelsDisplay aspect ratio : 1.85:1Frame rate mode : ConstantFrame rate : 23.976 fpsColor space : YUVChroma subsampling : 4:2:0Bit depth : 8 bitsScan type : ProgressiveBits/(Pixel*Frame) : 0.140Stream size : 1.06 GiB (72%)Writing library : x264 core 142 r2453 ea0ca51Encoding settings : cabac=1 / ref=12 / deblock=1:-2:-1 / analyse=0x3:0x133 / me=umh / subme=11 / psy=1 / psy_rd=1.00:0.05 / mixed_ref=1 / me_range=32 / chroma_me=1 / trellis=2 / 8x8dct=1 / cqm=0 / deadzone=21,11 / fast_pskip=0 / chroma_qp_offset=-3 / threads=12 / lookahead_threads=2 / sliced_threads=0 / nr=0 / decimate=1 / interlaced=0 / bluray_compat=0 / constrained_intra=0 / bframes=8 / b_pyramid=2 / b_adapt=2 / b_bias=0 / direct=3 / weightb=1 / open_gop=0 / weightp=2 / keyint=250 / keyint_min=23 / scenecut=40 / intra_refresh=0 / rc_lookahead=60 / rc=2pass / mbtree=1 / bitrate=1680 / ratetol=1.0 / qcomp=0.60 / qpmin=0 / qpmax=69 / qpstep=4 / cplxblur=20.0 / qblur=0.5 / ip_ratio=1.40 / aq=1:1.00Language : EnglishDefault : YesForced : No
Audio #1ID : 2Format : AC-3Format/Info : Audio Coding 3Mode extension : CM (complete main)Format settings, Endianness : BigCodec ID : A_AC3Duration : 1h 33mnBit rate mode : ConstantBit rate : 384 KbpsChannel(s) : 6 channelsChannel positions : Front: L C R, Side: L R, LFESampling rate : 48.0 KHzBit depth : 16 bitsCompression mode : LossyStream size : 256 MiB (17%)Title : DUBLanguage : RussianDefault : YesForced : No
Audio #2ID : 3Format : AC-3Format/Info : Audio Coding 3Mode extension : CM (complete main)Format settings, Endianness : BigCodec ID : A_AC3Duration : 1h 33mnBit rate mode : ConstantBit rate : 192 KbpsChannel(s) : 2 channelsChannel positions : Front: L RSampling rate : 48.0 KHzBit depth : 16 bitsCompression mode : LossyStream size : 128 MiB (9%)Title : OriginalLanguage : EnglishDefault : NoForced : No
Text #1ID : 4Format : UTF-8Codec ID : S_TEXT/UTF8Codec ID/Info : UTF-8 Plain TextTitle : ForcedLanguage : RussianDefault : YesForced : No
Text #2ID : 5Format : UTF-8Codec ID : S_TEXT/UTF8Codec ID/Info : UTF-8 Plain TextTitle : FullLanguage : RussianDefault : NoForced : No
Text #3ID : 6Format : UTF-8Codec ID : S_TEXT/UTF8Codec ID/Info : UTF-8 Plain TextLanguage : EnglishDefault : NoForced : No
Menu00:00:00.000 : en:00:00:00.00000:03:46.000 : en:00:03:46.00000:07:10.000 : en:00:07:10.00000:11:00.000 : en:00:11:00.00000:13:28.000 : en:00:13:28.00000:17:27.000 : en:00:17:27.00000:21:46.000 : en:00:21:46.00000:26:36.000 : en:00:26:36.00000:28:37.000 : en:00:28:37.00000:30:50.000 : en:00:30:50.00000:33:54.000 : en:00:33:54.00000:35:26.000 : en:00:35:26.00000:37:43.000 : en:00:37:43.00000:41:24.000 : en:00:41:24.00000:44:44.000 : en:00:44:44.00000:48:12.000 : en:00:48:12.00000:51:44.000 : en:00:51:44.00000:54:52.000 : en:00:54:52.00000:58:28.000 : en:00:58:28.00001:00:44.000 : en:01:00:44.00001:02:48.000 : en:01:02:48.00001:04:34.000 : en:01:04:34.00001:08:17.000 : en:01:08:17.00001:11:08.000 : en:01:11:08.00001:14:47.000 : en:01:14:47.00001:20:21.000 : en:01:20:21.00001:21:34.000 : en:01:21:34.00001:22:33.000 : en:01:22:33.000

Скриншоты


_________________
Показать сообщения:    

Текущее время: Сегодня 01:50

Часовой пояс: GMT



Вы не можете начинать темы
Вы не можете отвечать на сообщения
Вы не можете редактировать свои сообщения
Вы не можете удалять свои сообщения
Вы не можете голосовать в опросах
Вы не можете прикреплять файлы к сообщениям
Вы не можете скачивать файлы