Важное объявление!
У Нас Все раздачи мультитрекерные, при нуле пиров в релизах, можете смело вставать на закачку!
 
Автор Сообщение

HUNTER

Стаж:
4 года 4 месяца
Сообщений:
56734

Репутация: 101

[+] [-]
Вне форума [Профиль] [ЛС]

Приключения в стране Лалалупсия. В поисках Сказки
Adventures in Lalaloopsy Land. The search for Pillow
Страна: США
Жанр: Детский мультфильм
Продолжительность: 01:12:45
Год выпуска: 2012
Перевод: Профессиональный (дублированный) Канал "Карусель"
Русские субтитры: нет
Режиссёр: Роберт Каллен / Robert Cullen-Описание: Волшебные приключения куколок-подружек! Герои мультфильма — очаровательные девочки с глазами-пуговками. У каждой подружки есть свой питомец, такой же веселый и симпатичный, как его хозяйка.
Девочки обнаруживают, что их подружка Сказка пропала... Отважные куколки немедля отправляются в путешествие, чтобы выручить ее из беды. Много препятствий повстречается на их пути, но поддержка и взаимовыручка приведут искательниц к заветной цели. Несмотря на все трудности и страхи дружба победит!- | Семпл | Совместный релиз: и -Спасибо grandmajor за исходник! Спасибо vedigo за русскую дорожку!-Качество: DVDRip
Формат: AVI
Видео: 720x400 (1.80:1), 25 fps, XviD build 73 ~2211 kbps avg, 0.31 bit/pixel
Аудио 1: 48 kHz, AC3, 2/0 (L,R) ch, ~192 kbps (Русский)
Аудио 2: 48 kHz, AC3, 3/2 (L,C,R,l,r) + LFE ch, ~448 kbps (English)
Субтитры: нет

Подробные технические данные

GeneralComplete name : Adventures in Lalaloopsy Land.aviFormat : AVIFormat/Info : Audio Video InterleaveFile size : 1.46 GiBDuration : 1h 12mnOverall bit rate : 2 867 KbpsWriting application : VirtualDubModRus 1.5.10.2 (build 2542/release)Writing library : VirtualDubMod build 2542/release
VideoID : 0Format : MPEG-4 VisualFormat profile : Advanced Simple@L5Format settings, BVOP : 1Format settings, QPel : NoFormat settings, GMC : No warppointsFormat settings, Matrix : CustomCodec ID : XVIDCodec ID/Hint : XviDDuration : 1h 12mnBit rate : 2 213 KbpsWidth : 720 pixelsHeight : 400 pixelsDisplay aspect ratio : 16:9Frame rate : 25.000 fpsColor space : YUVChroma subsampling : 4:2:0Bit depth : 8 bitsScan type : ProgressiveCompression mode : LossyBits/(Pixel*Frame) : 0.307Stream size : 1.12 GiB (77%)Writing library : XviD 73
Audio #1ID : 1Format : AC-3Format/Info : Audio Coding 3Mode extension : CM (complete main)Format settings, Endianness : BigCodec ID : 2000Duration : 1h 12mnBit rate mode : ConstantBit rate : 192 KbpsChannel count : 2 channelsChannel positions : Front: L RSampling rate : 48.0 KHzBit depth : 16 bitsCompression mode : LossyDelay relative to video : 8msStream size : 99.9 MiB (7%)Alignment : Split accross interleavesInterleave, duration : 40 ms (1.00 video frame)Interleave, preload duration : 500 ms
Audio #2ID : 2Format : AC-3Format/Info : Audio Coding 3Mode extension : CM (complete main)Format settings, Endianness : BigCodec ID : 2000Duration : 1h 12mnBit rate mode : ConstantBit rate : 448 KbpsChannel count : 6 channelsChannel positions : Front: L C R, Side: L R, LFESampling rate : 48.0 KHzBit depth : 16 bitsCompression mode : LossyDelay relative to video : 8msStream size : 233 MiB (16%)Alignment : Split accross interleavesInterleave, duration : 40 ms (1.00 video frame)Interleave, preload duration : 500 ms

Скриншоты

Запасные скриншоты - .png

Сравнение


http://rutracker.org/forum/viewtopic.php?t=4223225 - неудачный деинтерлейс


_________________
Показать сообщения:    

Текущее время: Сегодня 07:34

Часовой пояс: GMT



Вы не можете начинать темы
Вы не можете отвечать на сообщения
Вы не можете редактировать свои сообщения
Вы не можете удалять свои сообщения
Вы не можете голосовать в опросах
Вы не можете прикреплять файлы к сообщениям
Вы не можете скачивать файлы