Важное объявление!
У Нас Все раздачи мультитрекерные, при нуле пиров в релизах, можете смело вставать на закачку!
 
Автор Сообщение

HUNTER

Стаж:
4 года 4 месяца
Сообщений:
56719

Репутация: 101

[+] [-]
Вне форума [Профиль] [ЛС]

Приключения в стране Лалалупсия. В поисках сказки
Adventures in Lalaloopsy Land. The search for Pillow
Страна: США
Жанр: Детский мультфильм
Продолжительность: 01:12:45
Год выпуска: 2012
Перевод: Профессиональный (дублированный) Канал "Карусель"
Русские субтитры: нет
Режиссёр: Роберт Каллен / Robert Cullen-Описание: Волшебные приключения куколок-подружек! Герои мультфильма — очаровательные девочки с глазами-пуговками. У каждой подружки есть свой питомец, такой же веселый и симпатичный, как его хозяйка.
Девочки обнаруживают, что их подружка Сказка пропала... Отважные куколки немедля отправляются в путешествие, чтобы выручить ее из беды. Много препятствий повстречается на их пути, но поддержка и взаимовыручка приведут искательниц к заветной цели. Несмотря на все трудности и страхи дружба победит!
-Доп. материалы: Миниэпизоды (на англ. языке)
Доп. информация: Русская аудиодорожка из этой раздачи (спасибо vedigo) - играет по умолчанию. Английская аудиодорожка оставлена второй, выбирается с пульта.
Качество: DVD5 (Custom)
Формат: DVD-video
Видео: PAL, 16:9, 720x576, ~6000 kb/s
Аудио 1: Dolby AC3, 2 ch, 192 kb/s (Русский)
Аудио 2: Dolby AC3, 6 ch, 448 kb/s (English)
Субтитры: английские (DVD/IDX+SUB)
Релиз:

DVDInfo

Title: Lalaloopsy 2012 DVD5Size: 4.11 Gb ( 4 308 352,00 KBytes ) - DVD-5Enabled regions: 1, 2, 3, 4, 5, 6, 7, 8
VTS_01 : Play Length: 00:00:01+01:12:45 Video: PAL 16:9 (720x576) VBR, Auto Letterboxed Audio: Russian (Dolby AC3, 2 ch) English (Dolby AC3, 6 ch) Subtitles: English
VTS_02 : Play Length: 00:00:00+00:00:00 Video: PAL 16:9 (720x576) VBR, Auto Letterboxed Audio: English (Dolby AC3, 6 ch)
VTS_03 : Play Length: 00:03:18+00:03:10+00:02:16+00:01:57+00:03:15 Video: PAL 16:9 (720x576) VBR, Auto Letterboxed Audio: English (Dolby AC3, 2 ch)
* Menus Information *
VIDEO_TS MenuVideo: NTSC 4:3 (720x480) VBR Auto Pan&Scan, Auto LetterboxedEnglish Language Unit : Title Menu
VTS_01 MenuVideo: PAL 16:9 (720x576) VBR Auto LetterboxedAudio: Not specified (Dolby AC3, 2 ch)English Language Unit : Root Menu
VTS_02 MenuVideo: NTSC 4:3 (720x480) VBR Auto Pan&Scan, Auto LetterboxedLanguage Unit : Subpicture Menu Angle menuLanguage Unit :
Language Unit :
Language Unit :
Language Unit :
VTS_03 MenuVideo: NTSC 4:3 (720x480) VBR Auto Pan&Scan, Auto LetterboxedEnglish Language Unit : Root Menu

MediaInfo

ОбщееПолное имя : E:\MULTFILMS\Lalaloopsy 2012 DVD5\VIDEO_TS\VTS_01_1.VOBФормат : MPEG-PSРазмер файла : 1024 МбайтПродолжительность : 20 м.Режим общего битрейта : ПеременныйОбщий поток : 6874 Кбит/сек
ВидеоИдентификатор : 224 (0xE0)Формат : MPEG VideoВерсия формата : Version 2Профиль формата : Main@MainПараметр BVOP формата : ДаПараметр матрицы формата : По умолчаниюПараметр GOP формата : M=3, N=12Продолжительность : 20 м.Вид битрейта : ПеременныйБитрейт : 6097 Кбит/секШирина : 720 пикселейВысота : 576 пикселейСоотношение сторон : 16:9Частота кадров : 25,000 кадров/секСтандарт вещания : PALЦветовое пространство : YUVСубдискретизация насыщенности : 4:2:0Битовая глубина : 8 битТип развёртки : ПрогрессивнаяМетод сжатия : С потерямиБит/(Пиксели*Кадры) : 0.588Размер потока : 908 Мбайт (89%)
Аудио #1Идентификатор : 189 (0xBD)-128 (0x80)Формат : AC-3Формат/Информация : Audio Coding 3Расширение режима : CM (complete main)Параметр Endianness формата : BigРежим смешивания : DVD-VideoПродолжительность : 20 м.Вид битрейта : ПостоянныйБитрейт : 192 Кбит/секКаналы : 2 каналаРасположение каналов : Front: L RЧастота : 48,0 КГцБитовая глубина : 16 битМетод сжатия : С потерямиЗадержка видео : -56 мс.Размер потока : 28,6 Мбайт (3%)
Аудио #2Идентификатор : 189 (0xBD)-129 (0x81)Формат : AC-3Формат/Информация : Audio Coding 3Расширение режима : CM (complete main)Параметр Endianness формата : BigРежим смешивания : DVD-VideoПродолжительность : 20 м.Вид битрейта : ПостоянныйБитрейт : 448 Кбит/секКаналы : 6 каналовРасположение каналов : Front: L C R, Side: L R, LFEЧастота : 48,0 КГцБитовая глубина : 16 битМетод сжатия : С потерямиЗадержка видео : -56 мс.Размер потока : 66,7 Мбайт (7%)
ТекстИдентификатор : 189 (0xBD)-32 (0x20)Формат : RLEФормат/Информация : Run-length encodingРежим смешивания : DVD-VideoПродолжительность : 20 м.
Меню

Скриншоты меню

Скриншоты


Используемый софт

DGIndex (Извлечение аудиодорожки из mpg)
BeHappy (Распаковка звука в формат wav)
Adobe Audition (Синхронизация аудио)
Minnetonka Audio (Конвертация звука в формат Dolby AC3)
PgcDemux (Разборка диска)
MuxMan (Сборка диска)
DVDRemakePro (Реавторинг DVD)

_________________
Показать сообщения:    

Текущее время: Сегодня 05:11

Часовой пояс: GMT



Вы не можете начинать темы
Вы не можете отвечать на сообщения
Вы не можете редактировать свои сообщения
Вы не можете удалять свои сообщения
Вы не можете голосовать в опросах
Вы не можете прикреплять файлы к сообщениям
Вы не можете скачивать файлы