Важное объявление!
У Нас Все раздачи мультитрекерные, при нуле пиров в релизах, можете смело вставать на закачку!
 
Автор Сообщение

Koralina

Стаж:
3 года 9 месяцев
Сообщений:
7

Репутация: 21

[+] [-]
Вне форума [Профиль] [ЛС]

Приключения в изумрудном городе
Производство: Россия
Режиссер: Александр Макаров, Илья Максимов
Жанр: Мультфильм, Приключения
Год выпуска: 1999-2000 г.
Продолжительность: 4х~00:26:00 + 00:02:17
Перевод: Не требуется
Роли озвучивали: Юлия Бочанова, Вадим Гущин, Эра Зиганшина, Татьяна Михалевкина, Анатолий Петров, Елена Соловьева, Гелий Сысоев, Виктор Сухоруков, Ян Цапник, Михаил Черняк, Елена Шульман
Описание: Однажды домик маленькой девочки Долли, жившей в Канзасе, унёс страшный ураган. Когда девочка и её пёсик Тотошка проснулись и вышли из дома, то увидели, что попали в Волшебную Страну Жевунов.Добрая волшебница объяснила Долли, что её домик раздавил злую колдунью Гингему, и теперь для того, чтобы Долли смогла вернутся домой, она должна пойти в Изумрудный город, и попросить Гудвина, Великого и Ужасного, правителя города, помочь ей вернутся.По пути девочка знакомится с новыми друзьями: Страшилой, Железным дровосеком и Трусливым Львом, которые решаются помочь ей прибыть в город. В дороге их ожидала масса опасностей: кровожадные Зубарсы, поле с маками, и другие неприятности. Однако девочка всё же достигает поставленной цели и попадает в Изумрудный город. Но… На этом приключения не закончились.


Качество видео: DVDRip Исходник DVD9, PAL 4:3 (720x576) VBR
Видео кодек: XviD
Аудио кодек: AC3
Видео: 688x512 (1.34:1), 25 fps, XviD build 65 ~1994 kbps avg, 0.23 bit/pixel
Аудио: 48 kHz, AC3 Dolby Digital, 3/2 (L,C,R,l,r) + LFE ch, ~384 kbps
Cубтитры: отсутствуют

Релиз группа:
Рип: CrimeanFoxСписок серий:

1. Серебрянные туфельки

Год выпуска: 1999
Продолжительность: 00:26:00
Описание: Ураган переносит девочку Долли и щенка Тотошку из Канзаса в Волшебную страну, где жизнь не подчиняется обычным законам и возможны любые чудеса.Вместе с новыми друзьями: Соломенным Страшилой, Железным Дровосеком и Трусливым Львом они направляются к Волшебнику Изумрудного Города, который может помочь ей вернуться домой. Волшебник соглашается исполнить по одному желанию каждого из друзей, но сначала они должны победить злую колдунью

Медиаинфо

Format : AVI
Format/Info : Audio Video Interleave
File size : 444 MiB
Duration : 26mn 0s
Overall bit rate : 2 388 Kbps
Director : CrimeanFox
Writing application : VirtualDubMod 1.5.10.3 | www.virtualdub-fr.org || (build 2550/release)
Writing library : VirtualDub build 32706/release
Copyright : Vanila.films
Video
ID : 0
Format : MPEG-4 Visual
Format profile : Advanced Simple@L5
Format settings, BVOP : 2
Format settings, QPel : No
Format settings, GMC : No warppoints
Format settings, Matrix : Default (MPEG)
Codec ID : XVID
Codec ID/Hint : XviD
Duration : 26mn 0s
Bit rate : 1 994 Kbps
Width : 688 pixels
Height : 512 pixels
Display aspect ratio : 4:3
Frame rate : 25.000 fps
Color space : YUV
Chroma subsampling : 4:2:0
Bit depth : 8 bits
Scan type : Progressive
Compression mode : Lossy
Bits/(Pixel*Frame) : 0.226
Stream size : 371 MiB (84%)
Writing library : XviD 65
Audio
ID : 1
Format : AC-3
Format/Info : Audio Coding 3
Mode extension : CM (complete main)
Format settings, Endianness : Big
Codec ID : 2000
Duration : 26mn 0s
Bit rate mode : Constant
Bit rate : 384 Kbps
Channel(s) : 6 channels
Channel positions : Front: L C R, Side: L R, LFE
Sampling rate : 48.0 KHz
Bit depth : 16 bits
Compression mode : Lossy
Stream size : 71.4 MiB (16%)
Alignment : Split accross interleaves
Interleave, duration : 40 ms (1.00 video frame)
Interleave, preload duration : 500 ms

Скриншоты


2. Тайна великого волшебника

Год выпуска: 1999
Продолжительность: 00:26:01
Описание: Ураган переносит девочку Долли и щенка Тотошку из Канзаса в Волшебную страну, где жизнь не подчиняется обычным законам и возможны любые чудеса. Вместе с новыми друзьями: Соломенным Страшилой, Железным Дровосеком и Трусливым Львом — они направляются к Волшебнику Изумрудного Города, который может помочь ей вернуться домой. Волшебник соглашается исполнить по одному желанию каждого из друзей, но сначала они должны победить злую колдунью…

Медиаинфо

Format : AVI
Format/Info : Audio Video Interleave
File size : 444 MiB
Duration : 26mn 1s
Overall bit rate : 2 388 Kbps
Director : CrimeanFox
Writing application : VirtualDubMod 1.5.10.3 | www.virtualdub-fr.org || (build 2550/release)
Writing library : VirtualDub build 32706/release
Copyright : Vanila.films
Video
ID : 0
Format : MPEG-4 Visual
Format profile : Advanced Simple@L5
Format settings, BVOP : 2
Format settings, QPel : No
Format settings, GMC : No warppoints
Format settings, Matrix : Default (MPEG)
Codec ID : XVID
Codec ID/Hint : XviD
Duration : 26mn 1s
Bit rate : 1 994 Kbps
Width : 688 pixels
Height : 512 pixels
Display aspect ratio : 4:3
Frame rate : 25.000 fps
Color space : YUV
Chroma subsampling : 4:2:0
Bit depth : 8 bits
Scan type : Progressive
Compression mode : Lossy
Bits/(Pixel*Frame) : 0.226
Stream size : 371 MiB (84%)
Writing library : XviD 65
Audio
ID : 1
Format : AC-3
Format/Info : Audio Coding 3
Mode extension : CM (complete main)
Format settings, Endianness : Big
Codec ID : 2000
Duration : 26mn 1s
Bit rate mode : Constant
Bit rate : 384 Kbps
Channel(s) : 6 channels
Channel positions : Front: L C R, Side: L R, LFE
Sampling rate : 48.0 KHz
Bit depth : 16 bits
Compression mode : Lossy
Stream size : 71.5 MiB (16%)
Alignment : Split accross interleaves
Interleave, duration : 40 ms (1.00 video frame)
Interleave, preload duration : 500 ms

Скриншоты:


3. Козни старой Момби

Год выпуска: 2000
Продолжительность: 00:26:01
Описание: Злая ведьма Момби и самозванная девушка-генерал Джинджер захватили власть в Изумрудном городе страны Оз. Страшила вместе со своими друзьями расколдовывает дочь последнего законного правителя Изумрудного города Озму и борется за справедливость. А в этом им помогают девочка Долли из Канзаса, добрая фея Глинда и учёный жук Кувыркун.

Медиаинфо

Format : AVI
Format/Info : Audio Video Interleave
File size : 444 MiB
Duration : 26mn 1s
Overall bit rate : 2 386 Kbps
Director : CrimeanFox
Writing application : VirtualDubMod 1.5.10.3 | www.virtualdub-fr.org || (build 2550/release)
Writing library : VirtualDub build 32706/release
Copyright : Vanila.films
Video
ID : 0
Format : MPEG-4 Visual
Format profile : Advanced Simple@L5
Format settings, BVOP : 2
Format settings, QPel : No
Format settings, GMC : No warppoints
Format settings, Matrix : Default (MPEG)
Codec ID : XVID
Codec ID/Hint : XviD
Duration : 26mn 1s
Bit rate : 1 992 Kbps
Width : 688 pixels
Height : 512 pixels
Display aspect ratio : 4:3
Frame rate : 25.000 fps
Color space : YUV
Chroma subsampling : 4:2:0
Bit depth : 8 bits
Scan type : Progressive
Compression mode : Lossy
Bits/(Pixel*Frame) : 0.226
Stream size : 371 MiB (83%)
Writing library : XviD 65
Audio
ID : 1
Format : AC-3
Format/Info : Audio Coding 3
Mode extension : CM (complete main)
Format settings, Endianness : Big
Codec ID : 2000
Duration : 26mn 1s
Bit rate mode : Constant
Bit rate : 384 Kbps
Channel(s) : 6 channels
Channel positions : Front: L C R, Side: L R, LFE
Sampling rate : 48.0 KHz
Bit depth : 16 bits
Compression mode : Lossy
Stream size : 71.5 MiB (16%)
Alignment : Split accross interleaves
Interleave, duration : 40 ms (1.00 video frame)
Interleave, preload duration : 500 ms

Скрниншоты:


4. Принцесса Озма

Год выпуска: 2000
Продолжительность: 00:26:01
Описание: Злая ведьма Момби и самозванная девушка-генерал Джинджер захватили власть в Изумрудном городе страны Оз. Страшила вместе со своими друзьями расколдовывает дочь последнего законного правителя Изумрудного города Озму и борется за справедливость. А в этом им помогают девочка Долли из Канзаса, добрая фея Глинда и учёный жук Кувыркун.

Медиаинфо

Format : AVI
Format/Info : Audio Video Interleave
File size : 444 MiB
Duration : 26mn 1s
Overall bit rate : 2 384 Kbps
Director : CrimeanFox
Writing application : VirtualDubMod 1.5.10.3 | www.virtualdub-fr.org || (build 2550/release)
Writing library : VirtualDub build 32706/release
Copyright : Vanila.films
Video
ID : 0
Format : MPEG-4 Visual
Format profile : Advanced Simple@L5
Format settings, BVOP : 2
Format settings, QPel : No
Format settings, GMC : No warppoints
Format settings, Matrix : Default (MPEG)
Codec ID : XVID
Codec ID/Hint : XviD
Duration : 26mn 1s
Bit rate : 1 991 Kbps
Width : 688 pixels
Height : 512 pixels
Display aspect ratio : 4:3
Frame rate : 25.000 fps
Color space : YUV
Chroma subsampling : 4:2:0
Bit depth : 8 bits
Scan type : Progressive
Compression mode : Lossy
Bits/(Pixel*Frame) : 0.226
Stream size : 371 MiB (83%)
Writing library : XviD 65
Audio
ID : 1
Format : AC-3
Format/Info : Audio Coding 3
Mode extension : CM (complete main)
Format settings, Endianness : Big
Codec ID : 2000
Duration : 26mn 1s
Bit rate mode : Constant
Bit rate : 384 Kbps
Channel(s) : 6 channels
Channel positions : Front: L C R, Side: L R, LFE
Sampling rate : 48.0 KHz
Bit depth : 16 bits
Compression mode : Lossy
Stream size : 71.5 MiB (16%)
Alignment : Split accross interleaves
Interleave, duration : 40 ms (1.00 video frame)
Interleave, preload duration : 500 ms

Скриншоты:


5. Не вошедшая сцена

Продолжительность: 00:02:17
Описание:Фрагмент не вошедший ни в одну из серий

Скриншоты:

Скриншоты:
Скриншоты:

Показать сообщения:    

Текущее время: Сегодня 01:00

Часовой пояс: GMT



Вы не можете начинать темы
Вы не можете отвечать на сообщения
Вы не можете редактировать свои сообщения
Вы не можете удалять свои сообщения
Вы не можете голосовать в опросах
Вы не можете прикреплять файлы к сообщениям
Вы не можете скачивать файлы