Важное объявление!
У Нас Все раздачи мультитрекерные, при нуле пиров в релизах, можете смело вставать на закачку!
 
Автор Сообщение

Koralina

Стаж:
3 года 9 месяцев
Сообщений:
7

Репутация: 21

[+] [-]
Вне форума [Профиль] [ЛС]

Приключения Буратино
Производство: СССР
Режиссер: Леонид Нечаев
Жанр: детский, мюзикл, комедия, семейный
Год выпуска: 1975 г.
Продолжительность: 01:05:01 + 01:07:55
Российская премьера: 1 января 1976
Дата выхода DVD: 26 ноября 2009, «Флагман-Трейд»
Дата выхода Blu-Ray: 25 декабря 2012, «Флагман-Трейд»
В ролях: Дмитрий Иосифов, Владимир Этуш, Ролан Быков, Елена Санаева, Владимир Басов, Татьяна Проценко, Роман Столкарц, Томас Аугустинас, Григорий Светлорусов, Николай Гринько, .
Описание: На дурака не нужен нож: ему немного подпоешь и делай с ним, что хошь! Деревянный человечек, которого Папа Карло выстругал из полена, получился веселым, дерзким, шумным и доверчивым. Лиса Алиса и Кот Базилио завели его в Страну Дураков, но мудрая Черепаха Тортила помогла Буратино найти Золотой Ключик, потому что он был ужасно обаятельным.


Качество видео: SATRip
Контейнер: AVI
Видео кодек: XviD
Аудио кодек: MP3
Видео: 704x512 (1.38:1), 25 fps, XviD build 65 ~1991 kbps avg, 0.22 bit/pixel
Аудио: 48 kHz, MPEG Layer 3, 2 ch, ~128.00 kbps avg
Релиз группа:
Рип: CrimeanFox

Media Info

Format : AVI
Format/Info : Audio Video Interleave
File size : 990 MiB
Duration : 1h 5mn
Overall bit rate : 2 130 Kbps
Director : CrimeanFox
Writing application : VirtualDubMod 1.5.10.3 | www.virtualdub-fr.org || (build 2550/release)
Writing library : VirtualDub build 32706/release
Copyright : Vanila.films
Video
ID : 0
Format : MPEG-4 Visual
Format profile : Advanced Simple@L5
Format settings, BVOP : 2
Format settings, QPel : No
Format settings, GMC : No warppoints
Format settings, Matrix : Default (MPEG)
Codec ID : XVID
Codec ID/Hint : XviD
Duration : 1h 5mn
Bit rate : 1 992 Kbps
Width : 704 pixels
Height : 512 pixels
Display aspect ratio : 1.375
Frame rate : 25.000 fps
Color space : YUV
Chroma subsampling : 4:2:0
Bit depth : 8 bits
Scan type : Progressive
Compression mode : Lossy
Bits/(Pixel*Frame) : 0.221
Stream size : 926 MiB (94%)
Writing library : XviD 65
Audio
ID : 1
Format : MPEG Audio
Format version : Version 1
Format profile : Layer 3
Codec ID : 55
Codec ID/Hint : MP3
Duration : 1h 5mn
Bit rate mode : Constant
Bit rate : 128 Kbps
Channel(s) : 2 channels
Sampling rate : 48.0 KHz
Compression mode : Lossy
Stream size : 59.5 MiB (6%)
Alignment : Aligned on interleaves
Interleave, duration : 40 ms (1.00 video frame)
Interleave, preload duration : 504 ms
Writing library : LAME3.99r
Encoding settings : -m s -V 4 -q 2 -lowpass 17 -b 128

Скриншот c названием фильма

Скриншоты

Доп. информация

*Роль черепахи Тортилы Нечаев предлагал поначалу Фаине Раневской, но та, узнав, что фильм сниматься будет в Белоруссии, заявила, что по причине своего уже немолодого возраста согласна сниматься, только если съёмки будут проходить в подъезде её дома.
*В песне черепахи Тортилы Рина Зелёная во время записи отказалась петь второй куплет, так как в нём были слова о преклонном возрасте: «Старость все-таки не радость, люди правду говорят. Как мне счастье улыбалось триста лет тому назад!». Песню переписывать не стали, вместо второго куплета звучит лишь проигрыш.
*Часть фильма снималась в Ялте, на перевале Байдарские ворота и других живописных уголках Крыма
Показать сообщения:    

Текущее время: Сегодня 08:48

Часовой пояс: GMT



Вы не можете начинать темы
Вы не можете отвечать на сообщения
Вы не можете редактировать свои сообщения
Вы не можете удалять свои сообщения
Вы не можете голосовать в опросах
Вы не можете прикреплять файлы к сообщениям
Вы не можете скачивать файлы