Важное объявление!
У Нас Все раздачи мультитрекерные, при нуле пиров в релизах, можете смело вставать на закачку!
 
Автор Сообщение

HUNTER

Стаж:
4 года 4 месяца
Сообщений:
56829

Репутация: 101

[+] [-]
Вне форума [Профиль] [ЛС]

Приключения Американского Кролика / The Adventures of the American Rabbit
Страна: США, Япония
Жанр: мультфильм, фэнтези, семейный
Продолжительность: 01:17:00
Год выпуска: 1986
Перевод: Профессиональный (многоголосый закадровый) НТВ+
Русские субтитры: нет
Режиссёры: Нобутака Нисидзава / Nobutaka Nishizawa, Фред Вульф / Fred Wolf
Роли озвучивали: Боб Арбогаст, Пэт Фрэли, Бэрри Гордон, Боб Холт, Лью Хорн, Кеннет Марс, Лоренцо Мьюзик, Лори О’Брайэн
Описание: Мультфильм о приключениях кролика Роба (Роберта), которому волей судьбы суждено было стать Американским Кроликом. С детства кролик Роб выделялся среди остальных крольчат, а повзрослев он узнаёт что он избран стать Американским Кроликом чтобы защищать планетту от зла, после этого он отправляется в путешествие. В своём путешествии Роб знакомится с новыми друзьями и помогает им противостоять банде шакалов под предводительством стервятника.
II Сэмпл II IMDB II
Качество: HDTV 1080i
Формат: TS
Видео: AVC 1920x1080 (16:9) 25.0fps Bit rate 7175Kbps
Аудио: MP2 48.0 KHz 2ch. 192kbps rus
Субтитры: отсутствуют

Подробные технические данные

ОбщееИдентификатор : 1 (0x1)Полное имя : E:\torrent\The.Adventures.of.the.American.Rabbit.HDTV.1080i.tsФормат : MPEG-TSРазмер файла : 4,17 ГбайтПродолжительность : 1 ч. 17 м.Режим общего битрейта : ПеременныйОбщий поток : 7752 Кбит/сек
ВидеоИдентификатор : 1606 (0x646)Идентификатор меню : 1 (0x1)Формат : AVCФормат/Информация : Advanced Video CodecПрофиль формата : High@L4.0Параметр CABAC формата : ДаПараметр ReFrames формата : 3 кадраПараметр GOP формата : M=4, N=32Идентификатор кодека : 27Продолжительность : 1 ч. 17 м.Битрейт : 7175 Кбит/секШирина : 1920 пикселейВысота : 1080 пикселейСоотношение сторон : 16:9Частота кадров : 25,000 кадров/секСтандарт вещания : ComponentЦветовое пространство : YUVСубдискретизация насыщенности : 4:2:0Битовая глубина : 8 битТип развёртки : ЧересстрочнаяПорядок развёртки : Верхнее поле первоеБит/(Пиксели*Кадры) : 0.138Размер потока : 3,86 Гбайт (93%)Основные цвета : BT.709Характеристики трансфера : BT.709Коэффициенты матрицы : BT.709
АудиоИдентификатор : 2606 (0xA2E)Идентификатор меню : 1 (0x1)Формат : MPEG AudioВерсия формата : Version 1Профиль формата : Layer 2Идентификатор кодека : 3Продолжительность : 1 ч. 17 м.Вид битрейта : ПостоянныйБитрейт : 192 Кбит/секКаналы : 2 каналаЧастота : 48,0 КГцМетод сжатия : С потерямиРазмер потока : 106 Мбайт (2%)Язык : Russian

Скриншоты



_________________
Показать сообщения:    

Текущее время: Сегодня 11:00

Часовой пояс: GMT



Вы не можете начинать темы
Вы не можете отвечать на сообщения
Вы не можете редактировать свои сообщения
Вы не можете удалять свои сообщения
Вы не можете голосовать в опросах
Вы не можете прикреплять файлы к сообщениям
Вы не можете скачивать файлы