Важное объявление!
У Нас Все раздачи мультитрекерные, при нуле пиров в релизах, можете смело вставать на закачку!
 
Автор Сообщение

HUNTER

Стаж:
4 года 4 месяца
Сообщений:
56790

Репутация: 101

[+] [-]
Вне форума [Профиль] [ЛС]

Приключения Американского Кролика / The Adventures of the American Rabbit
Страна: США, Япония
Жанр: мультфильм, фэнтези, семейный
Продолжительность: 01:17:00
Год выпуска: 1986
Перевод: Профессиональный (многоголосый закадровый) НТВ+
Русские субтитры: нет
Режиссёры: Нобутака Нисидзава / Nobutaka Nishizawa, Фред Вульф / Fred Wolf
Роли озвучивали: Боб Арбогаст, Пэт Фрэли, Бэрри Гордон, Боб Холт, Лью Хорн, Кеннет Марс, Лоренцо Мьюзик, Лори О’Брайэн
Описание: Мультфильм о приключениях кролика Роба (Роберта), которому волей судьбы суждено было стать Американским Кроликом. С детства кролик Роб выделялся среди остальных крольчат, а повзрослев он узнаёт что он избран стать Американским Кроликом чтобы защищать планетту от зла, после этого он отправляется в путешествие. В своём путешествии Роб знакомится с новыми друзьями и помогает им противостоять банде шакалов под предводительством стервятника.
II Сэмпл II IMDB II
Качество: HDTVRip
Формат: AVI
Видео: Xvid 720x400 (16:9) 23.976fps Bit rate 2367Kbps b/p 0.329
Аудио: AC3 48.0 KHz 2ch. 192kbps rus mvo
Субтитры: отсутствуют

Подробные технические данные

ОбщееПолное имя : E:\torrent\The.Adventures.of.the.American.Rabbit.HDTVRip .aviФормат : AVIФормат/Информация : Audio Video InterleaveРазмер файла : 1,38 ГбайтПродолжительность : 1 ч. 17 м.Общий поток : 2568 Кбит/секБиблиотека кодирования : VirtualDub build 32842/release
ВидеоИдентификатор : 0Формат : MPEG-4 VisualПрофиль формата : Advanced Simple@L5Параметр BVOP формата : 2Параметр QPel формата : НетПараметр GMC формата : Без точки переходаПараметр матрицы формата : Default (H.263)Идентификатор кодека : XVIDИдентификатор кодека/Подсказка : XviDПродолжительность : 1 ч. 17 м.Битрейт : 2367 Кбит/секШирина : 720 пикселейВысота : 400 пикселейСоотношение сторон : 16:9Частота кадров : 25,000 кадров/секЦветовое пространство : YUVСубдискретизация насыщенности : 4:2:0Битовая глубина : 8 битТип развёртки : ПрогрессивнаяМетод сжатия : С потерямиБит/(Пиксели*Кадры) : 0.329Размер потока : 1,27 Гбайт (92%)Библиотека кодирования : XviD 65
АудиоИдентификатор : 1Формат : AC-3Формат/Информация : Audio Coding 3Расширение режима : CM (complete main)Параметр Endianness формата : BigИдентификатор кодека : 2000Продолжительность : 1 ч. 17 м.Вид битрейта : ПостоянныйБитрейт : 192 Кбит/секКаналы : 2 каналаРасположение каналов : Front: L RЧастота : 48,0 КГцБитовая глубина : 16 битМетод сжатия : С потерямиРазмер потока : 106 Мбайт (7%)Выравнивание : Соединение по промежуткамПродолжительность промежутка : 40 мс. (1,00 видеокадр)Время предзагрузки промежутка : 512 мс.

Скриншоты




_________________
Показать сообщения:    

Текущее время: Сегодня 11:31

Часовой пояс: GMT



Вы не можете начинать темы
Вы не можете отвечать на сообщения
Вы не можете редактировать свои сообщения
Вы не можете удалять свои сообщения
Вы не можете голосовать в опросах
Вы не можете прикреплять файлы к сообщениям
Вы не можете скачивать файлы