Важное объявление!
У Нас Все раздачи мультитрекерные, при нуле пиров в релизах, можете смело вставать на закачку!
 
Автор Сообщение

HUNTER

Стаж:
4 года 4 месяца
Сообщений:
56839

Репутация: 101

[+] [-]
Вне форума [Профиль] [ЛС]

Призраки Миссисипи / Ghosts of Mississippi
Страна: США
Студия: Castle Rock Entertainment, Columbia Pictures Corporation
Жанр: драма, криминал
Год выпуска: 1996
Продолжительность: 02:10:30
Перевод 1: Профессиональный (многоголосый закадровый) студия Нота по заказу т/к Россия
Перевод 2: Авторский (одноголосый закадровый) П. Карцев
Cубтитры: английские
Оригинальная аудиодорожка: английский
Режиссер: Роб Райнер / Rob Reiner
В ролях: Алек Болдуин, Джеймс Вудс, Вирджиния Мэдсен, Вупи Голдберг, Сюзанна Томпсон, Крэйг Т. Нельсон, Лукас Блэк, Джозеф Телло, Алекса ПенаВега, Уильям Х. Мэйси
Описание: Талантливый юрист берется за дело 25-летней давности. Расист застрелил негра — борца за гражданские права цветных, тогда, несмотря на неопровержимые улики, суд белых присяжных дважды отпускал его на свободу. Спустя четверть века вдова требует возобновления процесса.
Все материалы, показания свидетелей и улики пропали. Зять судьи, вынесшего в свое время оправдательный вердикт убийце, делает выбор: объединив усилия со следователем, он берется за это труднейшее политическое дело…
II Сэмпл II IMDB II
Тип релиза: WEB-DL 720p
Контейнер: MKV
Видео: AVC / 1274x720 / 16:9 / 23.976fps / Bit rate 3847Kbps
Аудио 1: AC3 / 48.0 KHz / 2ch. / 192kbps / rus / mvo / студия Нота
Аудио 2: AC3 / 48.0 KHz / 2ch. / 192kbps / rus / avo / П. Карцев
Аудио 3: AAC-LC / 48.0 KHz / 2ch. / 127kbps / eng
Формат субтитров: softsub (SRT)

MediaInfo

Общее
Уникальный идентификатор : 237739022766182467180369290582740957214 (0xB2DADECB4A81014DBE265B19095BF81E)
Полное имя : H:\!_Torrent\Ghosts.of.Mississippi.1996.WEB-DL.720p_by_vedigo.mkv
Формат : Matroska
Версия формата : Version 4 / Version 2
Размер файла : 4,04 Гбайт
Продолжительность : 2 ч. 10 м.
Общий поток : 4437 Кбит/сек
Название фильма : Ghosts.of.Mississippi.1996.WEB-DL.720p_by_vedigo
Дата кодирования : UTC 2015-08-21 11:11:35
Программа кодирования : mkvmerge v8.3.0 ('Over the Horizon') 64bit
Библиотека кодирования : libebml v1.3.1 + libmatroska v1.4.2
Attachements : cover.jpg / cover_land.jpg / small_cover.jpg / small_cover_land.jpg
DURATION : 02:10:30.400000000
NUMBER_OF_FRAMES : 244700
NUMBER_OF_BYTES : 187929600
_STATISTICS_WRITING_APP : mkvmerge v8.3.0 ('Over the Horizon') 64bit
_STATISTICS_WRITING_DATE_UTC : 2015-08-21 11:11:35
_STATISTICS_TAGS : BPS DURATION NUMBER_OF_FRAMES NUMBER_OF_BYTES
Видео
Идентификатор : 1
Формат : AVC
Формат/Информация : Advanced Video Codec
Профиль формата : High@L3.1
Параметр CABAC формата : Нет
Параметр ReFrames формата : 2 кадра
Идентификатор кодека : V_MPEG4/ISO/AVC
Продолжительность : 2 ч. 10 м.
Ширина : 1274 пикселя
Высота : 720 пикселей
Соотношение сторон : 16:9
Режим частоты кадров : Постоянный
Частота кадров : 23,976 кадра/сек
Цветовое пространство : YUV
Субдискретизация насыщенности : 4:2:0
Битовая глубина : 8 бит
Тип развёртки : Прогрессивная
Заголовок : Ghosts.of.Mississippi.1996.WEB-DL.720p_by_vedigo
Default : Да
Forced : Нет
Цветовой диапазон : Limited
Основные цвета : BT.709
Характеристики трансфера : BT.709
Коэффициенты матрицы : BT.709
Аудио #1
Идентификатор : 2
Формат : AC-3
Формат/Информация : Audio Coding 3
Расширение режима : CM (complete main)
Параметр Endianness формата : Big
Идентификатор кодека : A_AC3
Продолжительность : 2 ч. 10 м.
Вид битрейта : Постоянный
Битрейт : 192 Кбит/сек
Каналы : 2 канала
Расположение каналов : Front: L R
Частота : 48,0 КГц
Метод сжатия : С потерями
Размер потока : 179 Мбайт (4%)
Заголовок : MVO
Язык : Russian
Default : Да
Forced : Нет
Аудио #2
Идентификатор : 3
Формат : AC-3
Формат/Информация : Audio Coding 3
Расширение режима : CM (complete main)
Параметр Endianness формата : Big
Идентификатор кодека : A_AC3
Продолжительность : 2 ч. 10 м.
Вид битрейта : Постоянный
Битрейт : 192 Кбит/сек
Каналы : 2 канала
Расположение каналов : Front: L R
Частота : 48,0 КГц
Метод сжатия : С потерями
Размер потока : 179 Мбайт (4%)
Заголовок : AVO
Язык : Russian
Default : Нет
Forced : Нет
Аудио #3
Идентификатор : 4
Формат : AAC
Формат/Информация : Advanced Audio Codec
Профиль формата : LC
Идентификатор кодека : A_AAC
Продолжительность : 2 ч. 10 м.
Каналы : 2 канала
Расположение каналов : Front: L R
Частота : 48,0 КГц
Метод сжатия : С потерями
Заголовок : original
Язык : English
Default : Нет
Forced : Нет
Текст
Идентификатор : 5
Формат : UTF-8
Идентификатор кодека : S_TEXT/UTF8
Идентификатор кодека/Информация : UTF-8 Plain Text
Заголовок : subtitle eng
Язык : English
Default : Нет
Forced : Нет
Меню
00:00:00.000 : en:Chapter01
00:03:27.000 : en:Chapter02
00:07:51.000 : en:Chapter03
00:10:49.000 : en:Chapter04
00:14:50.000 : en:Chapter05
00:20:13.000 : en:Chapter06
00:24:05.000 : en:Chapter07
00:26:38.000 : en:Chapter08
00:28:44.000 : en:Chapter09
00:33:03.000 : en:Chapter10
00:38:00.000 : en:Chapter11
00:39:58.000 : en:Chapter12
00:42:15.000 : en:Chapter13
00:45:25.000 : en:Chapter14
00:49:37.000 : en:Chapter15
00:52:17.000 : en:Chapter16
00:58:30.000 : en:Chapter17
01:02:31.000 : en:Chapter18
01:04:53.000 : en:Chapter19
01:12:54.000 : en:Chapter20
01:15:36.000 : en:Chapter21
01:16:55.000 : en:Chapter22
01:22:26.000 : en:Chapter23
01:25:56.000 : en:Chapter24
01:29:56.000 : en:Chapter25
01:32:27.000 : en:Chapter26
01:37:41.000 : en:Chapter27
01:43:33.000 : en:Chapter28
01:44:35.000 : en:Chapter29
01:47:19.000 : en:Chapter30
01:53:12.000 : en:Chapter31
01:55:48.000 : en:Chapter32
01:59:53.000 : en:Chapter33
02:01:35.000 : en:Chapter34
02:03:57.000 : en:Chapter35
02:05:48.000 : en:Chapter36

Скриншоты



_________________
Показать сообщения:    

Текущее время: Сегодня 00:52

Часовой пояс: GMT



Вы не можете начинать темы
Вы не можете отвечать на сообщения
Вы не можете редактировать свои сообщения
Вы не можете удалять свои сообщения
Вы не можете голосовать в опросах
Вы не можете прикреплять файлы к сообщениям
Вы не можете скачивать файлы