Важное объявление!
У Нас Все раздачи мультитрекерные, при нуле пиров в релизах, можете смело вставать на закачку!
 
Автор Сообщение

HUNTER

Стаж:
4 года 4 месяца
Сообщений:
56734

Репутация: 101

[+] [-]
Вне форума [Профиль] [ЛС]

Призраки Гойи / Goya's Ghosts-
Год выпуска: 2006
Выпущено: США, Испания
Продолжительность: 01:53:44
Жанр: драма, военный, биография
Перевод: Профессиональный (полное дублирование)
+ Авторский одноголосый А.Алексеев
+ Авторский одноголосый А.Гаврилов
Оригинальная звуковая дорожка: English
Субтитры: Russian, English-Режиссер: Милош Форман / Milos Forman
В ролях: Хавьер Бардем, Натали Портман, Стеллан Скарсгард, Рэнди Куэйд, Хосе Луис Гомес, Микаэль Лонсдаль, Бланка Портильо, Мэйбл Ривера, Унакс Угальде, Фернандо Тилве
О фильме: Инесс, музу знаменитого портретиста Франциско Гойи, инквизиция бросает в темницу. В отчаянии живописец просит о помощи своего друга, священника Лоренцо. Их взаимоотношения подвергаются серьезному испытанию, необратимо меняя судьбы всех троих.-DON!
Релиз:
Формат: MKV
Видео: 1280x694 at 23.976 fps, x264@L4.1, crf, ~10077 kbps avg
Аудио #01: Russian: 48 kHz, DTS, 3/2 (L,C,R,l,r) + LFE ch, ~768.00 kbps avg |Дубляж, R5|
Аудио #02: Russian: 48 kHz, AC3, 3/2 (L,C,R,l,r) + LFE ch, ~448.00 kbps avg |Одноголосый закадровый, А.Алексеев|
Аудио #03: Russian: 48 kHz, AC3, 3/2 (L,C,R,l,r) + LFE ch, ~448.00 kbps avg |Одноголосый закадровый, А.Гаврилов|
Аудио #04: English: 48 kHz, AC3, 3/2 (L,C,R,l,r) + LFE ch, ~448.00 kbps avg
Семпл-

Скриншоты


-

mInfo

Формат : Matroska
Версия формата : Version 2
Размер файла : 9,68 Гбайт
Продолжительность : 1 ч. 53 м.
Общий поток : 12,2 Мбит/сек
Название фильма : Goya's Ghosts (2006) - Release for HDCLUB
Дата кодирования : UTC 2013-08-13 20:50:56
Программа кодирования : mkvmerge v5.7.0 ('The Whirlwind') built on Jul 8 2012 20:08:51
Библиотека кодирования : libebml v1.2.3 + libmatroska v1.3.0
Видео
Идентификатор : 1
Формат : AVC
Формат/Информация : Advanced Video Codec
Профиль формата : High@L4.1
Параметр CABAC формата : Да
Параметр ReFrames формата : 9 кадров
Идентификатор кодека : V_MPEG4/ISO/AVC
Продолжительность : 1 ч. 53 м.
Битрейт : 9837 Кбит/сек
Ширина : 1280 пикселей
Высота : 694 пикселя
Соотношение сторон : 1,85:1
Режим частоты кадров : Постоянный
Частота кадров : 23,976 кадра/сек
Цветовое пространство : YUV
Субдискретизация насыщенности : 4:2:0
Битовая глубина : 8 бит
Тип развёртки : Прогрессивная
Бит/(Пиксели*Кадры) : 0.462
Размер потока : 7,82 Гбайт (81%)
Библиотека кодирования : x264 core 129 r2245 bc13772
Настройки программы : cabac=1 / ref=9 / deblock=1:-3:-3 / analyse=0x3:0x133 / me=tesa / subme=10 / psy=1 / psy_rd=1.05:0.00 / mixed_ref=1 / me_range=24 / chroma_me=1 / trellis=2 / 8x8dct=1 / cqm=0 / deadzone=21,11 / fast_pskip=0 / chroma_qp_offset=-2 / threads=12 / lookahead_threads=2 / sliced_threads=0 / nr=0 / decimate=0 / interlaced=0 / bluray_compat=0 / constrained_intra=0 / bframes=8 / b_pyramid=2 / b_adapt=2 / b_bias=0 / direct=3 / weightb=1 / open_gop=0 / weightp=2 / keyint=250 / keyint_min=23 / scenecut=40 / intra_refresh=0 / rc_lookahead=60 / rc=crf / mbtree=0 / crf=16.8 / qcomp=0.75 / qpmin=0 / qpmax=69 / qpstep=4 / vbv_maxrate=50000 / vbv_bufsize=62500 / crf_max=0.0 / nal_hrd=none / ip_ratio=1.35 / pb_ratio=1.25 / aq=1:0.60
Язык : English
Default : Да
Forced : Нет
Аудио #1
Идентификатор : 2
Формат : DTS
Формат/Информация : Digital Theater Systems
Режим : 16
Параметр Endianness формата : Big
Идентификатор кодека : A_DTS
Продолжительность : 1 ч. 53 м.
Вид битрейта : Постоянный
Битрейт : 755 Кбит/сек
Каналы : 6 каналов
Расположение каналов : Front: L C R, Side: L R, LFE
Частота : 48,0 КГц
Битовая глубина : 24 бит
Метод сжатия : С потерями
Размер потока : 614 Мбайт (6%)
Заголовок : |Дубляж, R5|
Язык : Russian
Default : Да
Forced : Нет
Аудио #2
Идентификатор : 3
Формат : AC-3
Формат/Информация : Audio Coding 3
Расширение режима : CM (complete main)
Параметр Endianness формата : Big
Идентификатор кодека : A_AC3
Продолжительность : 1 ч. 53 м.
Вид битрейта : Постоянный
Битрейт : 448 Кбит/сек
Каналы : 6 каналов
Расположение каналов : Front: L C R, Side: L R, LFE
Частота : 48,0 КГц
Битовая глубина : 16 бит
Метод сжатия : С потерями
Размер потока : 364 Мбайт (4%)
Заголовок : |Одноголосый закадровый, А.Алексеев|
Язык : Russian
Default : Нет
Forced : Нет
Аудио #3
Идентификатор : 4
Формат : AC-3
Формат/Информация : Audio Coding 3
Расширение режима : CM (complete main)
Параметр Endianness формата : Big
Идентификатор кодека : A_AC3
Продолжительность : 1 ч. 53 м.
Вид битрейта : Постоянный
Битрейт : 448 Кбит/сек
Каналы : 6 каналов
Расположение каналов : Front: L C R, Side: L R, LFE
Частота : 48,0 КГц
Битовая глубина : 16 бит
Метод сжатия : С потерями
Размер потока : 364 Мбайт (4%)
Заголовок : |Одноголосый закадровый, А.Гаврилов|
Язык : Russian
Default : Нет
Forced : Нет
Аудио #4
Идентификатор : 5
Формат : AC-3
Формат/Информация : Audio Coding 3
Расширение режима : CM (complete main)
Параметр Endianness формата : Big
Идентификатор кодека : A_AC3
Продолжительность : 1 ч. 53 м.
Вид битрейта : Постоянный
Битрейт : 448 Кбит/сек
Каналы : 6 каналов
Расположение каналов : Front: L C R, Side: L R, LFE
Частота : 48,0 КГц
Битовая глубина : 16 бит
Метод сжатия : С потерями
Размер потока : 364 Мбайт (4%)
Язык : English
Default : Нет
Forced : Нет
Текст #1
Идентификатор : 6
Формат : UTF-8
Идентификатор кодека : S_TEXT/UTF8
Идентификатор кодека/Информация : UTF-8 Plain Text
Язык : Russian
Default : Нет
Forced : Нет
Текст #2
Идентификатор : 7
Формат : UTF-8
Идентификатор кодека : S_TEXT/UTF8
Идентификатор кодека/Информация : UTF-8 Plain Text
Язык : English
Default : Нет
Forced : Нет
Меню
00:00:00.000 : :00:00:00.000
00:05:40.591 : :00:05:40.591
00:12:23.910 : :00:12:23.910
00:20:32.065 : :00:20:32.065
00:28:28.541 : :00:28:28.541
00:38:51.913 : :00:38:51.913
00:47:19.671 : :00:47:19.671
00:55:57.563 : :00:55:57.563
01:03:01.445 : :01:03:01.445
01:09:31.126 : :01:09:31.126
01:17:07.957 : :01:17:07.957
01:25:05.184 : :01:25:05.184
01:32:42.849 : :01:32:42.849
01:36:55.852 : :01:36:55.852
01:41:07.353 : :01:41:07.353
01:45:44.797 : :01:45:44.797

-
Цитата:
Цитата:

* Сохранены оригинальные чаптеры как на Blu-ray.
* Перевод А.Алексеева и А.Гаврилова осуществлен в рамках народного проекта форума e180. Спонсоры Партизан, Al12, Nadoelo, gendalf779.
-

_________________
Показать сообщения:    

Текущее время: Сегодня 09:00

Часовой пояс: GMT



Вы не можете начинать темы
Вы не можете отвечать на сообщения
Вы не можете редактировать свои сообщения
Вы не можете удалять свои сообщения
Вы не можете голосовать в опросах
Вы не можете прикреплять файлы к сообщениям
Вы не можете скачивать файлы