Важное объявление!
У Нас Все раздачи мультитрекерные, при нуле пиров в релизах, можете смело вставать на закачку!
 
Автор Сообщение

димитри37

Стаж:
3 года 8 месяцев
Сообщений:
1237

Репутация: 127

[+] [-]
Вне форума [Профиль] [ЛС]

Преступления сладострастия / Crimenes de Lujuria
Страна: Мексика
Жанр: триллер
Год выпуска: 2011
Продолжительность: 01:29:49
Перевод: Профессиональный (многоголосый, закадровый) /Лицензия/
Субтитры: нет
Режиссер: Уолтер Доэхнер / Walter Doehner
В ролях: Plutarco Haza, Мария Де Ла Фуэнте, Хавьер Диаз Дуэна, Алехандро Рельмонте
Описание: Что связывает Ребекку и Артуро? Разумеется, всепоглощающая страсть. Возможно, любовь. Но прежде всего - удачное стечение обстоятельств. Ребекку привлекает перспектива избавиться от опостылевшего мужа и приобрести нового любовника. Артуро жаждет получить не столько девушку, сколько ее деньги. Проще сказать, чем сделать...


Мировая премьера: 25 января 2011
Релиз на DVD: 9 апреля 2013, «West Video»
Качество: HDRip [рип с BDRip 720p]
Контейнер: AVI
Видео: XviD, 720x400 (16:9), 1784 kbps, 24 fps, 0,258 bpp
Аудио: AC3 / 5.1 / 48 kHz / 384 kbps / 16 bit

Media Info

General
Complete name : G:\Prestuplenija.sladostrastija.2011.P_HDRip.avi
Format : AVI
Format/Info : Audio Video Interleave
File size : 1.37 GiB
Duration : 1h 29mn
Overall bit rate : 2 178 Kbps
Movie name : Prestuplenija.sladostrastija.2011.P.HDRip
Genre : Thriller
Writing application : VirtualDubMod 1.5.10.2 (build 2540/release)
Original source form/Name : Movie
Video
ID : 0
Format : MPEG-4 Visual
Format profile : Advanced Simple@L5
Format settings, BVOP : 1
Format settings, QPel : No
Format settings, GMC : No warppoints
Format settings, Matrix : Custom
Codec ID : XVID
Codec ID/Hint : XviD
Duration : 1h 29mn
Bit rate : 1 785 Kbps
Width : 720 pixels
Height : 400 pixels
Display aspect ratio : 16:9
Frame rate : 24.000 fps
Color space : YUV
Chroma subsampling : 4:2:0
Bit depth : 8 bits
Scan type : Progressive
Compression mode : Lossy
Bits/(Pixel*Frame) : 0.258
Stream size : 1.12 GiB (82%)
Writing library : XviD 1.2.1 (UTC 2008-12-04)
Audio
ID : 1
Format : AC-3
Format/Info : Audio Coding 3
Mode extension : CM (complete main)
Codec ID : 2000
Duration : 1h 29mn
Bit rate mode : Constant
Bit rate : 384 Kbps
Channel(s) : 6 channels
Channel positions : Front: L C R, Side: L R, LFE
Sampling rate : 48.0 KHz
Bit depth : 16 bits
Compression mode : Lossy
Stream size : 247 MiB (18%)
Alignment : Split accross interleaves
Interleave, duration : 42 ms (1.00 video frame)
Interleave, preload duration : 500 ms

Скриншот с названием фильма

Скриншоты

Показать сообщения:    

Текущее время: Сегодня 22:35

Часовой пояс: GMT



Вы не можете начинать темы
Вы не можете отвечать на сообщения
Вы не можете редактировать свои сообщения
Вы не можете удалять свои сообщения
Вы не можете голосовать в опросах
Вы не можете прикреплять файлы к сообщениям
Вы не можете скачивать файлы