Важное объявление!
У Нас Все раздачи мультитрекерные, при нуле пиров в релизах, можете смело вставать на закачку!
 
Автор Сообщение

димитри37

Стаж:
3 года 8 месяцев
Сообщений:
1237

Репутация: 127

[+] [-]
Вне форума [Профиль] [ЛС]

Препарасьон
Страна: Россия
Жанр: вне жанра
Продолжительность: 5 м. 47 с
Год выпуска: 2012
Русские субтитры: нет
Режиссёр: Владимир Лазаренко-Маневич
Описание: Мультфильм "Препарасьон" был создан по мотивам картин В. Любарова заключенными Пермской женской колонии.
Качество: WEBRip
Формат: MP4
Видео: AVC/768: 576 пикс/25,000 кадр/сек/3594 Кбит/сек
Аудио: AAC/48,0 КГц/2 кан/157 Кбит/сек
Субтитры: нет

Ещё информация

Ссылка: Картины В.Любарова

Подробные технические данные

Формат : MPEG-4Идентификатор кодека : M4VРазмер файла : 156 МбайтПродолжительность : 5 м. 47 с.Общий поток : 3756 Кбит/секДата кодирования : UTC 2012-10-09 12:37:17Дата пометки : UTC 2012-10-09 12:37:39Примечание : Скачано при помощи Replay Media Catcher 4 - www.applian.com©TIM : 00:00:00:00©TSC : 25©TSZ : 1
ВидеоИдентификатор : 1Формат : AVCФормат/Информация : Advanced Video CodecПрофиль формата : Baseline@L4.0Параметр CABAC формата : НетПараметр ReFrames формата : 2 кадрыИдентификатор кодека : avc1Идентификатор кодека/Информация : Advanced Video CodingПродолжительность : 5 м. 47 с.Вид битрейта : ПеременныйБитрейт : 3594 Кбит/секМаксимальный битрейт : 5400 Кбит/секШирина : 768 пикс.Высота : 576 пикс.Соотношение сторон : 4:3Режим частоты кадров : ПостоянныйЧастота кадров : 25,000 кадр/секСтандарт вещания : PALЦветовое пространство : YUVПодвыборка цветности : 4:2:0Битовая глубина : 8 битТип развёртки : ПрогрессивнаяБит/(Пиксели*Кадры) : 0.325Размер потока : 149 Мбайт (96%)Язык : English
Дата пометки : UTC 2012-10-09 12:37:17
АудиоИдентификатор : 2Формат : AACФормат/Информация : Advanced Audio CodecПрофиль формата : LCИдентификатор кодека : 40Продолжительность : 5 м. 47 с.Вид битрейта : ПеременныйБитрейт : 157 Кбит/секМаксимальный битрейт : 255 Кбит/секКанал(ы) : 2 канала(ов)Расположение каналов : Front: L RЧастота : 48,0 КГцМетод сжатия : С потерямиРазмер потока : 6,53 Мбайт (4%)Язык : English

Скриншоты

-
Показать сообщения:    

Текущее время: Сегодня 20:26

Часовой пояс: GMT



Вы не можете начинать темы
Вы не можете отвечать на сообщения
Вы не можете редактировать свои сообщения
Вы не можете удалять свои сообщения
Вы не можете голосовать в опросах
Вы не можете прикреплять файлы к сообщениям
Вы не можете скачивать файлы