Важное объявление!
У Нас Все раздачи мультитрекерные, при нуле пиров в релизах, можете смело вставать на закачку!
 
Автор Сообщение

HUNTER

Стаж:
4 года 4 месяца
Сообщений:
56733

Репутация: 101

[+] [-]
Вне форума [Профиль] [ЛС]

Президент Линкольн: Охотник на вампиров / Abraham Lincoln: Vampire Hunter
Страна: США
Жанр: фантастика, приключения, ужасы
Год выпуска: 2012
Продолжительность: 01:40:44
Перевод: Профессиональный (дублированный) Сентрал Продакшн Интернейшнл Груп
Cубтитры: русские, английские, эстонские, латвийские, литовские, турецкие, украинские (вкл/выкл)
Оригинальная аудиодорожка: английский
Режиссер: Тимур Бекмамбетов / Timur Bekmambetov
В ролях: Бенджамин Уокер, Доминик Купер, Энтони Маки,
Мэри Элизабет Уинстэд, Руфус Сьюэлл, Мартон Чокаш,
Джимми Симпсон, Джозеф Моул, Робин МакЛиви, Эрин Уоссон и др.
Описание: Мир полон тайн и загадок. Вот и у Авраама Линкольна была своя тайна: днём он был президентом всея страны америки, любящим мужем и заботливым отцом. А ночью он превращался в беспощадного убийцу вампиров. Армия кровопивц, которая заполонила всю америку, всё растёт и растёт с каждым днём! Вот и пришлось Аврааму Линкольну по совместительству, на общественных началах, быть ещё и охотником на вампиров. А кто ещё внатуре, если не он, сможет спасти свою страну от полчищ вампиров, и спасти свою семью и свой народ от безжалостных кровопивцев? Только он - Авраам Линкольн!!!
Дополнительные материалы: английский
Как снимался фильм "Президент Линкольн: Охотник на вампиров"
Тёмные секреты: из книги на экран - перевод субтитрами.
Аудиокомментарии сценариста Сета Грэма-Смита - без перевода.
Меню: русский, английский. Статичное, частично озвученное.
Издатель диска: 20-й Век Фокс СНГ
Тип релиза: DVD9
Контейнер: DVD-Video
Video: PAL 720x576, 16:9 Auto Letterboxed, VBR 5944 kbps - 9800 kbps, 0.573 bit/pixel
Аudio #1: English AC-3 Dolby Digital, CBR 448 kbps 6 ch, Front: L C R, Side: L R, LFE, 48.0 KHz
Аudio #2: Russian AC-3 Dolby Digital, CBR 384 kbps 6 ch, Front: L C R, Side: L R, LFE, 48.0 KHz
Аudio #3: Turkish AC-3 Dolby Digital, CBR 384 kbps 6 ch, Front: L C R, Side: L R, LFE, 48.0 KHz
Аudio #4: Ukrainian AC-3 Dolby Digital, CBR 384 kbps 6 ch, Front: L C R, Side: L R, LFE, 48.0 KHz
Аudio #5: English AC-3 Dolby Digital, CBR 192 kbps 2 ch, Front: L R, 48.0 KHz (comment)

DVDInfo

Title: Abraham_Lincoln_Vampire_Hunter_2012_DVD9_[rutracker.org]Size: 6.59 Gb ( 6 911 780,00 KBytes ) - DVD-9Enabled regions: 1, 2, 3, 4, 5, 6
VTS_01 : Play Length: 00:00:01 Video: PAL 16:9 (720x576) VBR, Auto Pan&Scan
VTS_02 : Play Length: 00:00:11+00:00:39+00:01:01+00:01:01+00:01:01 Video: PAL 16:9 (720x576) VBR, Auto Letterboxed Audio: Not specified (Dolby AC3, 2 ch) Subtitles: Not specified Not specified Not specified Not specified
VTS_03 : Play Length: 00:00:24 Video: PAL 16:9 (720x576) VBR, Auto Letterboxed Audio: Not specified (Dolby AC3, 6 ch)
VTS_04 : Play Length: 01:40:44+00:00:00 Video: PAL 16:9 (720x576) VBR, Auto Letterboxed Audio: English (Dolby AC3, 6 ch) Russian (Dolby AC3, 6 ch) Turkish (Dolby AC3, 6 ch) Ukrainian (Dolby AC3, 6 ch) English (Dolby AC3, 2 ch) Subtitles: English Russian Estonian Latvian Lithuanian Turkish Ukrainian Russian Turkish Ukrainian
VTS_05 : Play Length: 00:14:36 Video: PAL 16:9 (720x576) VBR, Auto Letterboxed Audio: English (Dolby AC3, 2 ch) Subtitles: Russian
* Menus Information *
VIDEO_TS MenuVideo: PAL 16:9 (720x576) VBR Auto Pan&ScanEnglish Language Unit : Title Menu
VTS_01 MenuVideo: NTSC 4:3 (720x480) VBR Auto Pan&Scan, Auto LetterboxedEnglish Language Unit : Root Menu
VTS_02 MenuVideo: NTSC 4:3 (720x480) VBR Auto Pan&Scan, Auto LetterboxedEnglish Language Unit : Root Menu
VTS_03 MenuVideo: NTSC 4:3 (720x480) VBR Auto Pan&Scan, Auto LetterboxedEnglish Language Unit : Root Menu
VTS_04 MenuVideo: PAL 16:9 (720x576) VBR Auto Pan&ScanAudio: Not specified (Dolby AC3, 2 ch)English Language Unit : Root Menu Subpicture Menu Audio Menu Angle menu Chapter (PTT) Menu
VTS_05 MenuVideo: NTSC 4:3 (720x480) VBR Auto Pan&Scan, Auto LetterboxedEnglish Language Unit : Root Menu

MediaInfo - VTS_04_1.VOB

ОбщееПолное имя : Р:\Abraham_Lincoln_Vampire_Hunter_2012_DVD9_[rutracker.org]\VIDEO_TS\VTS_04_1.VOBФормат : MPEG-PSРазмер файла : 1024 МбайтПродолжительность : 18 м.Режим общего битрейта : ПеременныйОбщий поток : 7893 Кбит/сек
ВидеоИдентификатор : 224 (0xE0)Формат : MPEG VideoВерсия формата : Version 2Профиль формата : Main@MainПараметр BVOP формата : ДаПараметр матрицы формата : ВыборочнаяПараметр GOP формата : VariableПродолжительность : 18 м.Вид битрейта : ПеременныйБитрейт : 5944 Кбит/секМаксимальный битрейт : 9800 Кбит/секШирина : 720 пикселейВысота : 576 пикселейСоотношение сторон : 16:9Частота кадров : 25,000 кадров/секСтандарт вещания : ComponentЦветовое пространство : YUVСубдискретизация насыщенности : 4:2:0Битовая глубина : 8 битТип развёртки : ПрогрессивнаяПорядок развёртки : Верхнее поле первоеМетод сжатия : С потерямиБит/(Пиксели*Кадры) : 0.573Временной код первого кадра : 00:59:59:00Оригинал временного кода : Group of pictures headerРазмер потока : 771 Мбайт (75%)Основные цвета : BT.601 PALХарактеристики трансфера : BT.470 System B, BT.470 System GКоэффициенты матрицы : BT.601
Аудио #1Идентификатор : 189 (0xBD)-128 (0x80)Формат : AC-3Формат/Информация : Audio Coding 3Расширение режима : CM (complete main)Параметр Endianness формата : BigРежим смешивания : DVD-VideoПродолжительность : 18 м.Вид битрейта : ПостоянныйБитрейт : 448 Кбит/секКаналы : 6 каналовРасположение каналов : Front: L C R, Side: L R, LFEЧастота : 48,0 КГцБитовая глубина : 16 битМетод сжатия : С потерямиРазмер потока : 58,1 Мбайт (6%)
Аудио #2Идентификатор : 189 (0xBD)-129 (0x81)Формат : AC-3Формат/Информация : Audio Coding 3Расширение режима : CM (complete main)Параметр Endianness формата : BigРежим смешивания : DVD-VideoПродолжительность : 18 м.Вид битрейта : ПостоянныйБитрейт : 384 Кбит/секКаналы : 6 каналовРасположение каналов : Front: L C R, Side: L R, LFEЧастота : 48,0 КГцБитовая глубина : 16 битМетод сжатия : С потерямиРазмер потока : 49,8 Мбайт (5%)
Аудио #3Идентификатор : 189 (0xBD)-130 (0x82)Формат : AC-3Формат/Информация : Audio Coding 3Расширение режима : CM (complete main)Параметр Endianness формата : BigРежим смешивания : DVD-VideoПродолжительность : 18 м.Вид битрейта : ПостоянныйБитрейт : 384 Кбит/секКаналы : 6 каналовРасположение каналов : Front: L C R, Side: L R, LFEЧастота : 48,0 КГцБитовая глубина : 16 битМетод сжатия : С потерямиРазмер потока : 49,8 Мбайт (5%)
Аудио #4Идентификатор : 189 (0xBD)-131 (0x83)Формат : AC-3Формат/Информация : Audio Coding 3Расширение режима : CM (complete main)Параметр Endianness формата : BigРежим смешивания : DVD-VideoПродолжительность : 18 м.Вид битрейта : ПостоянныйБитрейт : 384 Кбит/секКаналы : 6 каналовРасположение каналов : Front: L C R, Side: L R, LFEЧастота : 48,0 КГцБитовая глубина : 16 битМетод сжатия : С потерямиРазмер потока : 49,8 Мбайт (5%)
Аудио #5Идентификатор : 189 (0xBD)-132 (0x84)Формат : AC-3Формат/Информация : Audio Coding 3Расширение режима : CM (complete main)Параметр Endianness формата : BigРежим смешивания : DVD-VideoПродолжительность : 18 м.Вид битрейта : ПостоянныйБитрейт : 192 Кбит/секКаналы : 2 каналаРасположение каналов : Front: L RЧастота : 48,0 КГцБитовая глубина : 16 битМетод сжатия : С потерямиРазмер потока : 24,9 Мбайт (2%)
Текст #1Идентификатор : 189 (0xBD)-32 (0x20)Формат : RLEФормат/Информация : Run-length encodingРежим смешивания : DVD-VideoПродолжительность : 18 м.
Текст #2Идентификатор : 189 (0xBD)-33 (0x21)Формат : RLEФормат/Информация : Run-length encodingРежим смешивания : DVD-VideoПродолжительность : 18 м.
Текст #3Идентификатор : 189 (0xBD)-34 (0x22)Формат : RLEФормат/Информация : Run-length encodingРежим смешивания : DVD-VideoПродолжительность : 18 м.
Текст #4Идентификатор : 189 (0xBD)-35 (0x23)Формат : RLEФормат/Информация : Run-length encodingРежим смешивания : DVD-VideoПродолжительность : 18 м.
Текст #5Идентификатор : 189 (0xBD)-36 (0x24)Формат : RLEФормат/Информация : Run-length encodingРежим смешивания : DVD-VideoПродолжительность : 18 м.
Текст #6Идентификатор : 189 (0xBD)-37 (0x25)Формат : RLEФормат/Информация : Run-length encodingРежим смешивания : DVD-VideoПродолжительность : 18 м.
Текст #7Идентификатор : 189 (0xBD)-38 (0x26)Формат : RLEФормат/Информация : Run-length encodingРежим смешивания : DVD-VideoПродолжительность : 18 м.
Текст #8Идентификатор : 189 (0xBD)-39 (0x27)Формат : RLEФормат/Информация : Run-length encodingРежим смешивания : DVD-VideoПродолжительность : 18 м.
Текст #9Идентификатор : 189 (0xBD)-40 (0x28)Формат : RLEФормат/Информация : Run-length encodingРежим смешивания : DVD-VideoПродолжительность : 18 м.
Текст #10Идентификатор : 189 (0xBD)-41 (0x29)Формат : RLEФормат/Информация : Run-length encodingРежим смешивания : DVD-VideoПродолжительность : 18 м.
Текст #11Идентификатор : 189 (0xBD)-42 (0x2A)Формат : RLEФормат/Информация : Run-length encodingРежим смешивания : DVD-VideoПродолжительность : 18 м.
Текст #12Идентификатор : 189 (0xBD)-43 (0x2B)Формат : RLEФормат/Информация : Run-length encodingРежим смешивания : DVD-VideoПродолжительность : 18 м.
Текст #13Идентификатор : 189 (0xBD)-44 (0x2C)Формат : RLEФормат/Информация : Run-length encodingРежим смешивания : DVD-VideoПродолжительность : 18 м.
Текст #14Идентификатор : 189 (0xBD)-45 (0x2D)Формат : RLEФормат/Информация : Run-length encodingРежим смешивания : DVD-VideoПродолжительность : 18 м.
Текст #15Идентификатор : 189 (0xBD)-46 (0x2E)Формат : RLEФормат/Информация : Run-length encodingРежим смешивания : DVD-Video
Текст #16Идентификатор : 189 (0xBD)-47 (0x2F)Формат : RLEФормат/Информация : Run-length encodingРежим смешивания : DVD-Video
Текст #17Идентификатор : 189 (0xBD)-48 (0x30)Формат : RLEФормат/Информация : Run-length encodingРежим смешивания : DVD-Video
Текст #18Идентификатор : 189 (0xBD)-49 (0x31)Формат : RLEФормат/Информация : Run-length encodingРежим смешивания : DVD-Video
Текст #19Идентификатор : 189 (0xBD)-50 (0x32)Формат : RLEФормат/Информация : Run-length encodingРежим смешивания : DVD-Video
Текст #20Идентификатор : 189 (0xBD)-51 (0x33)Формат : RLEФормат/Информация : Run-length encodingРежим смешивания : DVD-Video
Меню

Скриншоты меню


Скриншоты дополнительных материалов


Время раздачи - по возможности.

_________________
Показать сообщения:    

Текущее время: Сегодня 01:28

Часовой пояс: GMT



Вы не можете начинать темы
Вы не можете отвечать на сообщения
Вы не можете редактировать свои сообщения
Вы не можете удалять свои сообщения
Вы не можете голосовать в опросах
Вы не можете прикреплять файлы к сообщениям
Вы не можете скачивать файлы