Важное объявление!
У Нас Все раздачи мультитрекерные, при нуле пиров в релизах, можете смело вставать на закачку!
 
Автор Сообщение

HUNTER

Стаж:
4 года 4 месяца
Сообщений:
56822

Репутация: 101

[+] [-]
Вне форума [Профиль] [ЛС]

Прежде чем я усну / Before I Go to Sleep
Страна: Великобритания, Франция, Швеция
Студия: Film i Vast, Filmgate Films, Millennium Films, Scott Free Productions, Studio Canal
Жанр: триллер, детектив, драма
Год выпуска: 2014
Продолжительность: 01:31:52
Перевод: Профессиональный (дублированный)
Cубтитры: английские
Оригинальная аудиодорожка: английский
Режиссер: Роуэн Жоффе / Rowan Joffe
В ролях: Николь Кидман, Колин Ферт, Марк Стронг, Энн-Мэри Дафф, Дин-Чарльз Чепмен, Джин Лу, Адам Леви, Льюэлла Гидеон, Чарли Гарднер, Рози Макферсон, Кевин Хадсон
Описание: История о женщине, потерявшей память: каждое утро последние двадцать лет просто исчезают из ее воспоминаний, и каждое утро ей приходится по крупицам восстанавливать собственную жизнь.

Тип релиза: BDRip 1080p
Контейнер: MKV
Видео: MPEG-4 AVC, 17.8 Mбит/с, 1920x816, 24,000 fps
Аудио: Rus, DTS, 1510 kb/s (6 ch), 48 kHz
Аудио 2: Eng, DTS, 768 kb/s (6 ch), 48 kHz
Формат субтитров: softsub (SRT)

MediaInfo

Format : Matroska
Format version : Version 4 / Version 2
File size : 13.1 GiB
Duration : 1h 31mn
Overall bit rate : 20.4 Mbps
Movie name : Tonik
Encoded date : UTC 2015-01-25 09:12:29
Writing application : mkvmerge v7.1.0 ('Good Love') 64bit built on Jul 27 2014 13:06:55
Writing library : libebml v1.3.0 + libmatroska v1.4.1
_STATISTICS_WRITING_APP : mkvmerge v7.1.0 ('Good Love') 64bit built on Jul 27 2014 13:06:55
_STATISTICS_WRITING_DATE_UTC : 2015-01-25 09:12:29
_STATISTICS_TAGS : BPS DURATION NUMBER_OF_FRAMES NUMBER_OF_BYTES
DURATION : 01:30:53.875000000
NUMBER_OF_FRAMES : 987
NUMBER_OF_BYTES : 29294
Video
ID : 1
Format : AVC
Format/Info : Advanced Video Codec
Format profile : High@L4.1
Format settings, CABAC : Yes
Format settings, ReFrames : 5 frames
Codec ID : V_MPEG4/ISO/AVC
Duration : 1h 31mn
Bit rate : 17.8 Mbps
Width : 1 920 pixels
Height : 816 pixels
Display aspect ratio : 2.35:1
Frame rate mode : Constant
Frame rate : 24.000 fps
Color space : YUV
Chroma subsampling : 4:2:0
Bit depth : 8 bits
Scan type : Progressive
Bits/(Pixel*Frame) : 0.472
Stream size : 11.4 GiB (87%)
Writing library : x264 core 142 r2479 dd79a61
Encoding settings : cabac=1 / ref=5 / deblock=1:-3:-3 / analyse=0x3:0x133 / me=umh / subme=10 / psy=1 / psy_rd=0.98:0.00 / mixed_ref=1 / me_range=48 / chroma_me=1 / trellis=2 / 8x8dct=1 / cqm=0 / deadzone=21,11 / fast_pskip=1 / chroma_qp_offset=-2 / threads=16 / lookahead_threads=2 / sliced_threads=0 / nr=0 / decimate=1 / interlaced=0 / bluray_compat=0 / constrained_intra=0 / bframes=9 / b_pyramid=2 / b_adapt=2 / b_bias=0 / direct=3 / weightb=1 / open_gop=0 / weightp=2 / keyint=250 / keyint_min=24 / scenecut=40 / intra_refresh=0 / rc_lookahead=100 / rc=crf / mbtree=0 / crf=18.0 / qcomp=0.65 / qpmin=0 / qpmax=69 / qpstep=4 / vbv_maxrate=50000 / vbv_bufsize=62500 / crf_max=0.0 / nal_hrd=none / filler=0 / ip_ratio=1.30 / pb_ratio=1.20 / aq=1:0.80
Language : English
Default : Yes
Forced : No
DURATION : 01:31:52.042000000
NUMBER_OF_FRAMES : 132289
NUMBER_OF_BYTES : 12525086516
_STATISTICS_WRITING_APP : mkvmerge v7.1.0 ('Good Love') 64bit built on Jul 27 2014 13:06:55
_STATISTICS_WRITING_DATE_UTC : 2015-01-25 09:12:29
_STATISTICS_TAGS : BPS DURATION NUMBER_OF_FRAMES NUMBER_OF_BYTES
Audio #1
ID : 2
Format : DTS
Format/Info : Digital Theater Systems
Mode : 16
Format settings, Endianness : Big
Codec ID : A_DTS
Duration : 1h 31mn
Bit rate mode : Constant
Bit rate : 1 509 Kbps
Channel(s) : 6 channels
Channel positions : Front: L C R, Side: L R, LFE
Sampling rate : 48.0 KHz
Bit depth : 24 bits
Compression mode : Lossy
Stream size : 993 MiB (7%)
Language : Russian
Default : Yes
Forced : No
Audio #2
ID : 3
Format : DTS
Format/Info : Digital Theater Systems
Mode : 16
Format settings, Endianness : Big
Codec ID : A_DTS
Duration : 1h 31mn
Bit rate mode : Constant
Bit rate : 768 Kbps
Channel(s) : 6 channels
Channel positions : Front: L C R, Side: L R, LFE
Sampling rate : 48.0 KHz
Bit depth : 24 bits
Compression mode : Lossy
Stream size : 505 MiB (4%)
Language : English
Default : No
Forced : No
Text
ID : 4
Format : UTF-8
Codec ID : S_TEXT/UTF8
Codec ID/Info : UTF-8 Plain Text
Language : English
Default : No
Forced : No
Menu
00:00:00.000 : en:00:00:00.000
00:08:30.500 : en:00:08:30.500
00:14:14.458 : en:00:14:14.458
00:21:55.542 : en:00:21:55.542
00:28:16.458 : en:00:28:16.458
00:34:40.083 : en:00:34:40.083
00:41:49.042 : en:00:41:49.042
00:49:32.875 : en:00:49:32.875
00:57:15.542 : en:00:57:15.542
01:04:23.333 : en:01:04:23.333
01:09:27.458 : en:01:09:27.458
01:18:11.250 : en:01:18:11.250

Скриншоты


_________________
Показать сообщения:    

Текущее время: Сегодня 08:32

Часовой пояс: GMT



Вы не можете начинать темы
Вы не можете отвечать на сообщения
Вы не можете редактировать свои сообщения
Вы не можете удалять свои сообщения
Вы не можете голосовать в опросах
Вы не можете прикреплять файлы к сообщениям
Вы не можете скачивать файлы