Важное объявление!
У Нас Все раздачи мультитрекерные, при нуле пиров в релизах, можете смело вставать на закачку!
 
Автор Сообщение

HUNTER

Стаж:
4 года 4 месяца
Сообщений:
56809

Репутация: 101

[+] [-]
Вне форума [Профиль] [ЛС]

-Превосходство
Transcendence

Год выпуска: 2014
Страна: Великобритания, Китай, США (Summit Entertainment / A Lionsgate Company, Alcon Entertainment)
Жанр: Фантастика, Драма, Триллер
Продолжительность: 1:53:33
Перевод: Профессиональный дублированный ("чистый звук" и неофициальный дубляж от Студии Пиратского Дубляжа)
Режиссер: Уолли Пфистер / Wally Pfister-Роли исполняли (дублировали):

Will Caster - Джонни Депп (Сергей Бурунов)
Evelyn Caster - Ребекка Холл (Марьяна Спивак)
Max Waters - Пол Беттани (Александр Головчанский)
Agent Buchanan - Киллиан Мёрфи (Сергей Смирнов)
Bree - Кейт Мара (Евгения Ваган)
Colonel Stevens - Коул Хаузер (Исмаил Зиядзаде)
Joseph Tagger - Морган Фриман (Игорь Старосельцев)
Martin - Клифтон Коллинз мл. (Даниил Эльдаров)
Joel Edmund - Кори Хардрикт
Bob - Фальк Хеншел (Илья Исаев)
Paul - Джош Стюарт (Иван Жарков)
-Описание: Выдающийся исследователь в области изучения искусственного интеллекта доктор Уилл Кастер работает над созданием компьютера, который сможет собрать в себе все знания и опыт, накопленные человечеством. Достаточно спорные эксперименты, проводимые Уиллом, прославили его и в то же время сделали основной целью радикальной анти-технологической группировки. Экстремисты делают всё возможное, чтобы остановить учёного.
Однако в своих попытках уничтожить Уилла они добиваются обратного и становятся невольными участниками становления его абсолютного превосходства. Для его жены Эвелин и лучшего друга Макса Вотерса, тоже учёных-исследователей, встаёт вопрос, должны ли они продолжать этот эксперимент. Их худшие опасения претворяются в жизнь, когда жажда знаний Уилла переходит в неконтролируемую жажду власти…
-Доп. инфо: Часть эпизодов реализована в 2Д с углублением картинки в экран (см. скрины 3Д-анимации внизу).

Знаете ли вы, что...

  • Продолжая свою активную пропаганду касательно использования кинопленки вместо цифровых форматов, Уолли Пфистер снял этот фильм в анаморфном формате на 35-мм пленку и отказался от использования цифровой камеры. Также он использовал фотохимическую обработку, отказавшись от цифрового интернегатива.
  • Первоначальный сценарий к фильму, написанный Джеком Пагленом, попал в «Чёрный список» лучших неспродюсированных сценариев 2012-го года.
  • После того, как Кейт Уинслет из-за несогласованности расписаний съёмок отказалась от главной женской роли, на ее место рассматривалась кандидатура Нуми Рапас.
  • На одну из главных ролей рассматривались: Джуд Лоу, Джеймс МакЭвой, Тоби Магуайр и Кристиан Бэйл.
  • Роль второго плана предлагалась Кристофу Вальцу.
  • Юэн МакГрегор и Том Харди рассматривались на роль Макса, но они оба отказались из-за несогласованности графика съёмок.
  • На роль Эвелин рассматривались Ребекка Холл, Эмили Блант и Руни Мара.
  • Элисон Бри пробовалась на роль, которую в итоге получила Кейт Мара.
  • Когда Эвелин заселяется в отель, в котором Уилл резервировал для нее номер, она говорит у стойки регистрации, что у нее забронирован номер на имя «Тьюринг». Алан Тьюринг (Alan Turing) был британским математиком и ученым, который разработал концепцию «Универсальной машины» и изобрел тест Тьюринга — метод определения «разумности» компьютера.
  • Этот фильм стал режиссерским дебютом Уолли Пфистера.
Премьера: 10 апреля 2014
Бюджет: $100 000 000
Кассовые сборы: $103 039 258

. .
-Качество: BDRip (by Ash61) с BD 3D Fre
Контейнер: MKV
Формат 3D: Half OverUnder / Вертикальная анаморфная стереопара
Порядок ракурсов: левый ракурс первый
Видео кодек: x264
Аудио кодек: AC3-Видео: AVC / 23,976 fps / 1920х1080p / ~6.7 Mbps
Аудио:
#1 - Русский / AC3 / 48 KHz / 2 ch / 384 Kbps (Официальный дубляж - "чистый звук") [реально стерео]
#2 - Русский / AC3 / 48 KHz / 5.1 ch / 384 Kbps (Неофициальный дубляж - Студия Пиратского Дубляжа)
#3 - Английский / AC3 / 48 KHz / 5.1 ch / 640 Kbps (Original - BD 3D Fre)
Субтитры (внешние SRT UTF-8):
#1 - Русские Полные <i>
#2 - English Full <i>

MediaInfo

General
Unique ID : 183131839216249346405218220421806310565 (0x89C5E8C757BBB5BEAD66B9C312F444A5)
Complete name : E:\Transcendence(2014)3D-halfOU(Ash61)ClearSound+\Transcendence(2014)3D-halfOU(Ash61)ClearSound+.mkv
Format : Matroska
Format version : Version 2
File size : 6.60 GiB
Duration : 1h 53mn
Overall bit rate : 8 317 Kbps
Movie name : Превосходство / Transcendence (2014) 3D
Encoded date : UTC 2014-11-08 16:09:43
Writing application : mkvmerge v5.8.0 ('No Sleep / Pillow') built on Sep 2 2012 15:37:04
Writing library : libebml v1.2.3 + libmatroska v1.3.0
Video
ID : 1
Format : AVC
Format/Info : Advanced Video Codec
Format profile : High@L4.1
Format settings, CABAC : Yes
Format settings, ReFrames : 4 frames
Codec ID : V_MPEG4/ISO/AVC
Duration : 1h 53mn
Bit rate : 6 744 Kbps
Width : 1 920 pixels
Height : 1 080 pixels
Display aspect ratio : 16:9
Frame rate mode : Constant
Frame rate : 23.976 fps
Color space : YUV
Chroma subsampling : 4:2:0
Bit depth : 8 bits
Scan type : Progressive
Bits/(Pixel*Frame) : 0.136
Stream size : 5.35 GiB (81%)
Title : BDRip by Ash61
Writing library : x264 core 138 r2358 9e941d1
Encoding settings : cabac=1 / ref=4 / deblock=1:-3:-3 / analyse=0x3:0x113 / me=umh / subme=10 / psy=1 / psy_rd=1.00:0.15 / mixed_ref=1 / me_range=32 / chroma_me=1 / trellis=2 / 8x8dct=1 / cqm=0 / deadzone=21,11 / fast_pskip=1 / chroma_qp_offset=-3 / threads=12 / lookahead_threads=2 / sliced_threads=0 / nr=0 / decimate=1 / interlaced=0 / bluray_compat=0 / constrained_intra=0 / bframes=9 / b_pyramid=2 / b_adapt=2 / b_bias=0 / direct=3 / weightb=1 / open_gop=0 / weightp=2 / keyint=250 / keyint_min=23 / scenecut=40 / intra_refresh=0 / rc_lookahead=60 / rc=crf / mbtree=1 / crf=17.0 / qcomp=0.70 / qpmin=0 / qpmax=69 / qpstep=4 / vbv_maxrate=40000 / vbv_bufsize=30000 / crf_max=0.0 / nal_hrd=none / frame-packing=4 / ip_ratio=1.40 / aq=1:0.70
Language : English
Default : Yes
Forced : No
Audio #1
ID : 2
Format : AC-3
Format/Info : Audio Coding 3
Mode extension : CM (complete main)
Format settings, Endianness : Big
Codec ID : A_AC3
Duration : 1h 53mn
Bit rate mode : Constant
Bit rate : 384 Kbps
Channel(s) : 2 channels
Channel positions : Front: L R
Sampling rate : 48.0 KHz
Bit depth : 16 bits
Compression mode : Lossy
Stream size : 312 MiB (5%)
Title : Дубляж (официальный) - "чистый звук"
Language : Russian
Default : Yes
Forced : No
Audio #2
ID : 3
Format : AC-3
Format/Info : Audio Coding 3
Mode extension : CM (complete main)
Format settings, Endianness : Big
Codec ID : A_AC3
Duration : 1h 53mn
Bit rate mode : Constant
Bit rate : 384 Kbps
Channel(s) : 6 channels
Channel positions : Front: L C R, Side: L R, LFE
Sampling rate : 48.0 KHz
Bit depth : 16 bits
Compression mode : Lossy
Stream size : 312 MiB (5%)
Title : Дубляж (неофициальный) - Студия Пиратского Дубляжа
Language : Russian
Default : No
Forced : No
Audio #3
ID : 4
Format : AC-3
Format/Info : Audio Coding 3
Mode extension : CM (complete main)
Format settings, Endianness : Big
Codec ID : A_AC3
Duration : 1h 53mn
Bit rate mode : Constant
Bit rate : 640 Kbps
Channel(s) : 6 channels
Channel positions : Front: L C R, Side: L R, LFE
Sampling rate : 48.0 KHz
Bit depth : 16 bits
Compression mode : Lossy
Stream size : 520 MiB (8%)
Title : Original - BD 3D Fre
Language : English
Default : No
Forced : No
Menu
00:00:00.000 : :1
00:16:19.937 : :2
00:26:46.772 : :3
00:35:55.070 : :4
00:43:04.457 : :5
00:52:59.510 : :6
00:59:45.749 : :7
01:07:40.390 : :8
01:18:00.593 : :9
01:28:05.822 : :10
01:35:26.721 : :11
01:45:09.553 : :12

Для оценки 3Д - Анимированные скрины
















_________________
Показать сообщения:    

Текущее время: Сегодня 19:54

Часовой пояс: GMT



Вы не можете начинать темы
Вы не можете отвечать на сообщения
Вы не можете редактировать свои сообщения
Вы не можете удалять свои сообщения
Вы не можете голосовать в опросах
Вы не можете прикреплять файлы к сообщениям
Вы не можете скачивать файлы