Важное объявление!
У Нас Все раздачи мультитрекерные, при нуле пиров в релизах, можете смело вставать на закачку!
 
Автор Сообщение

HUNTER

Стаж:
4 года 4 месяца
Сообщений:
56755

Репутация: 101

[+] [-]
Вне форума [Профиль] [ЛС]

Правдивая ложь / True Lies«When he said I do, he never said what he did»-
Год выпуска: 1994
Страна: США
Жанр: боевик, триллер
Продолжительность: 02:15:03
Перевод: Профессиональный (Многоголосый закадровый) [Лицензия]
Субтитры: арабские, хорватские, чешские, английские, греческие, иврит, венгерские, казахские, румынские, русские, сербские, словенские, украинские
Оригинальная аудиодорожка: английская-Режиссер: Джеймс Кэмерон
Продюсер: Стефани Остин, Джеймс Кэмерон, Лоуренс Касанофф
Сценарий: Клод Зиди, Симон Микаэль, Дидье Каминка- -Премьера (мир): 15 июля 1994-В ролях: Арнольд Шварценеггер, Джейми Ли Кёртис, Том Арнольд, Билл Пэкстон, Тиа Каррере, Арт Малик, Элиза Душку, Грант Хеслов, Чарлтон Хестон, Маршалл Манеш-Описание:
Для своей семьи Гарри Таскер — любящий муж и отец, человек скромный и рассеянный, обыкновенный продавец компьютеров, «не вылезающий» с работы ни днем, ни ночью. Но лишь немногие знают, что на самом деле Гарри — специальный агент тайной правительственной службы, специализирующийся на особо опасных заданиях, владеющий кучей языков, всеми видами оружия и всеми возможными способами «отправки» злодеев на тот свет.
Агент Таскер и дальше продолжал бы вести двойную жизнь, если бы зловещие арабские террористы не похитили Гарри, а вместе с ним и его ничего не подозревающую жену Хэлен. Но бандиты, к своему несчастью, даже не подозревали с кем связались. И Хэлен узнала, что муж ее совсем не компьютерщик, и что она пятнадцать лет прожила с человеком, рядом с которым мускулистый Рэмбо выглядит ребенком…-Меню: на русском, статичное-Доп. материалы: кинотеатральный ролик-Качество: DVD9 R5 SAMPLE
Формат: DVD-Video
Видео: PAL 16:9 (720x576) VBR Auto Letterboxed ~ 5548 kbps avg
Аудио #1: Czech(Ceske), AC3, 2/0 (L,R) ch, 192 kbps
Аудио #2: English, AC3, 3/2 (L,C,R,SL,SR)+LFE ch, 384 kbps
Аудио #3: Magyar, AC3, 2/0 (L,R) ch, 192 kbps
Аудио #4: Russian, AC3, 3/2 (L,C,R,SL,SR)+LFE ch, 384 kbps
-

DVDInfo

Код:
Title: TRUE_LIES_DVD_R5
Size: 7.19 Gb ( 7 536 530,00 KBytes ) - DVD-9
Enabled regions: 1, 2, 3, 4, 5, 6, 7, 8
VTS_01 :
  Play Length: 02:15:03
  Video: PAL 16:9 (720x576) VBR, Auto Letterboxed
  Audio:
      Czech(Ceske) (Dolby AC3, 2 ch)
      English (Dolby AC3, 6 ch)
      Magyar (Dolby AC3, 2 ch)
      Russian (Dolby AC3, 6 ch)
  Subtitles:
      Arabic
      Hrvatski
      Czech(Ceske)
      English
      Greek
      Hebrew
      Magyar
      Kazakh
      Romanian
      Russian
      Serbian
      Slovenian
      Ukrainian
      Czech(Ceske)
      Magyar
VTS_02 :
  Play Length: 00:02:11
  Video: PAL 4:3 (720x576) VBR
  Audio:
      Czech(Ceske) (Dolby AC3, 6 ch)
  Subtitles:
      Arabic
      Hrvatski
      Czech(Ceske)
      English
      Greek
      Hebrew
      Magyar
      Kazakh
      Romanian
      Russian
      Serbian
      Slovenian
      Ukrainian
      Czech(Ceske)
      Magyar
VTS_03 :
  Play Length: 00:01:02+00:00:39+00:01:02+00:01:02+00:01:02
  Video: PAL 16:9 (720x576) VBR, Auto Letterboxed
  Audio:
      Czech(Ceske) (Dolby AC3, 2 ch)
      English (Dolby AC3, 2 ch)
  Subtitles:
      Arabic
      Hrvatski
      Czech(Ceske)
      Not specified
      Greek
      Hebrew
      Magyar
      Not specified
      Romanian
      Russian
      Serbian
      Slovenian
      Ukrainian
      Czech(Ceske)
      Magyar
VTS_04 :
  Play Length: 00:01:55+00:01:47+00:01:47+00:01:47
  Video: PAL 16:9 (720x576) VBR, Auto Letterboxed
  Audio:
      Czech(Ceske) (Dolby AC3, 6 ch)
      English (Dolby AC3, 6 ch)
      Not specified (Dolby AC3, 6 ch)
      Russian (Dolby AC3, 6 ch)
  Subtitles:
      Arabic
      Hrvatski
      Not specified
      Not specified
      Greek
      Hebrew
      Not specified
      Not specified
      Romanian
      Russian
      Serbian
      Slovenian
      Ukrainian
      Not specified
      Not specified
VTS_05 :
  Play Length: 00:00:26
  Video: PAL 16:9 (720x576) VBR, Auto Letterboxed
  Audio:
      English (Dolby AC3, 6 ch)

MediaInfo

Код:
Общее
Полное имя                               : D:\TRUE_LIES_DVD_R5\VIDEO_TS\VTS_01_1.VOB
Формат                                   : MPEG-PS
Размер файла                             : 1024 Мбайт
Продолжительность                        : 20 м.
Режим общего битрейта                    : Переменный
Общий поток                              : 6836 Кбит/сек
Видео
Идентификатор                            : 224 (0xE0)
Формат                                   : MPEG Video
Версия формата                           : Version 2
Профиль формата                          : Main@Main
Параметр BVOP формата                    : Да
Параметр матрицы формата                 : Выборочная
Параметр GOP формата                     : M=3, N=15
Продолжительность                        : 20 м.
Вид битрейта                             : Переменный
Битрейт                                  : 5548 Кбит/сек
Максимальный битрейт                     : 7500 Кбит/сек
Ширина                                   : 720 пикселей
Высота                                   : 576 пикселей
Соотношение сторон                       : 16:9
Частота кадров                           : 25,000 кадров/сек
Стандарт вещания                         : PAL
Цветовое пространство                    : YUV
Субдискретизация насыщенности            : 4:2:0
Битовая глубина                          : 8 бит
Тип развёртки                            : Прогрессивная
Порядок развёртки                        : Верхнее поле первое
Метод сжатия                             : С потерями
Бит/(Пиксели*Кадры)                      : 0.535
Временной код первого кадра              : 00:59:58:00
Оригинал временного кода                 : Group of pictures header
Размер потока                            : 831 Мбайт (81%)
Gop_OpenClosed_FirstFrame                : Closed
Аудио #1
Идентификатор                            : 189 (0xBD)-128 (0x80)
Формат                                   : AC-3
Формат/Информация                        : Audio Coding 3
Расширение режима                        : CM (complete main)
Параметр Endianness формата              : Big
Режим смешивания                         : DVD-Video
Продолжительность                        : 20 м.
Вид битрейта                             : Постоянный
Битрейт                                  : 192 Кбит/сек
Каналы                                   : 2 канала
Расположение каналов                     : Front: L R
Частота                                  : 48,0 КГц
Битовая глубина                          : 16 бит
Метод сжатия                             : С потерями
Размер потока                            : 28,8 Мбайт (3%)
Аудио #2
Идентификатор                            : 189 (0xBD)-129 (0x81)
Формат                                   : AC-3
Формат/Информация                        : Audio Coding 3
Расширение режима                        : CM (complete main)
Параметр Endianness формата              : Big
Режим смешивания                         : DVD-Video
Продолжительность                        : 20 м.
Вид битрейта                             : Постоянный
Битрейт                                  : 384 Кбит/сек
Каналы                                   : 6 каналов
Расположение каналов                     : Front: L C R, Side: L R, LFE
Частота                                  : 48,0 КГц
Битовая глубина                          : 16 бит
Метод сжатия                             : С потерями
Размер потока                            : 57,5 Мбайт (6%)
Аудио #3
Идентификатор                            : 189 (0xBD)-130 (0x82)
Формат                                   : AC-3
Формат/Информация                        : Audio Coding 3
Расширение режима                        : CM (complete main)
Параметр Endianness формата              : Big
Режим смешивания                         : DVD-Video
Продолжительность                        : 20 м.
Вид битрейта                             : Постоянный
Битрейт                                  : 192 Кбит/сек
Каналы                                   : 2 канала
Расположение каналов                     : Front: L R
Частота                                  : 48,0 КГц
Битовая глубина                          : 16 бит
Метод сжатия                             : С потерями
Размер потока                            : 28,8 Мбайт (3%)
Аудио #4
Идентификатор                            : 189 (0xBD)-131 (0x83)
Формат                                   : AC-3
Формат/Информация                        : Audio Coding 3
Расширение режима                        : CM (complete main)
Параметр Endianness формата              : Big
Режим смешивания                         : DVD-Video
Продолжительность                        : 20 м.
Вид битрейта                             : Постоянный
Битрейт                                  : 384 Кбит/сек
Каналы                                   : 6 каналов
Расположение каналов                     : Front: L C R, Side: L R, LFE
Частота                                  : 48,0 КГц
Битовая глубина                          : 16 бит
Метод сжатия                             : С потерями
Размер потока                            : 57,5 Мбайт (6%)
Текст #1
Идентификатор                            : 189 (0xBD)-32 (0x20)
Формат                                   : RLE
Формат/Информация                        : Run-length encoding
Режим смешивания                         : DVD-Video
Текст #2
Идентификатор                            : 189 (0xBD)-33 (0x21)
Формат                                   : RLE
Формат/Информация                        : Run-length encoding
Режим смешивания                         : DVD-Video
Текст #3
Идентификатор                            : 189 (0xBD)-34 (0x22)
Формат                                   : RLE
Формат/Информация                        : Run-length encoding
Режим смешивания                         : DVD-Video
Текст #4
Идентификатор                            : 189 (0xBD)-35 (0x23)
Формат                                   : RLE
Формат/Информация                        : Run-length encoding
Режим смешивания                         : DVD-Video
Текст #5
Идентификатор                            : 189 (0xBD)-36 (0x24)
Формат                                   : RLE
Формат/Информация                        : Run-length encoding
Режим смешивания                         : DVD-Video
Текст #6
Идентификатор                            : 189 (0xBD)-37 (0x25)
Формат                                   : RLE
Формат/Информация                        : Run-length encoding
Режим смешивания                         : DVD-Video
Текст #7
Идентификатор                            : 189 (0xBD)-38 (0x26)
Формат                                   : RLE
Формат/Информация                        : Run-length encoding
Режим смешивания                         : DVD-Video
Текст #8
Идентификатор                            : 189 (0xBD)-39 (0x27)
Формат                                   : RLE
Формат/Информация                        : Run-length encoding
Режим смешивания                         : DVD-Video
Текст #9
Идентификатор                            : 189 (0xBD)-40 (0x28)
Формат                                   : RLE
Формат/Информация                        : Run-length encoding
Режим смешивания                         : DVD-Video
Текст #10
Идентификатор                            : 189 (0xBD)-41 (0x29)
Формат                                   : RLE
Формат/Информация                        : Run-length encoding
Режим смешивания                         : DVD-Video
Текст #11
Идентификатор                            : 189 (0xBD)-42 (0x2A)
Формат                                   : RLE
Формат/Информация                        : Run-length encoding
Режим смешивания                         : DVD-Video
Текст #12
Идентификатор                            : 189 (0xBD)-43 (0x2B)
Формат                                   : RLE
Формат/Информация                        : Run-length encoding
Режим смешивания                         : DVD-Video
Текст #13
Идентификатор                            : 189 (0xBD)-44 (0x2C)
Формат                                   : RLE
Формат/Информация                        : Run-length encoding
Режим смешивания                         : DVD-Video
Меню

Скриншоты меню


Скриншоты


-

_________________
Показать сообщения:    

Текущее время: Сегодня 15:14

Часовой пояс: GMT



Вы не можете начинать темы
Вы не можете отвечать на сообщения
Вы не можете редактировать свои сообщения
Вы не можете удалять свои сообщения
Вы не можете голосовать в опросах
Вы не можете прикреплять файлы к сообщениям
Вы не можете скачивать файлы