Важное объявление!
У Нас Все раздачи мультитрекерные, при нуле пиров в релизах, можете смело вставать на закачку!
 
Автор Сообщение

HUNTER

Стаж:
4 года 4 месяца
Сообщений:
56842

Репутация: 101

[+] [-]
Вне форума [Профиль] [ЛС]

Правдивая история об Алых парусах---
Год выпуска: 2010
Страна: Украина
Производство: Интер Медиа Продакшн
Жанр: Мелодрама
Продолжительность: ~ 00:50:00
Перевод: Русский
Режиссёр: Александр Стеколенко--В ролях Александр Бухаров
капитан Артур Грэй
Вероника Иващенко
Ассоль
Юрий Стоянов
бургомистр Гез
Эвклид Кюрдзидис
Бам Гран
Альберт Филозов
Тильс
Надежда Бикмурзина
Марго
--Описание:
Портовый городок Лисс изменился, а его полноправным хозяином стал бургомистр Гез, которому предстоит сыграть в этой истории очень важную роль. Гезу во всем помогает его правая рука – Лемарен, готовый по первому приказу пустить в дело бригаду верных ему "юнцов". За происходящим в городе наблюдает таинственная фигура – консультант по особо важным вопросам Бам-Гран. Он что-то затевает, и это "что-то" явно имеет отношение к милой Ассоль, все ждущей своего принца...-- --Качество: DVDRip
Формат: AVI
Видео кодек: XviD
Аудио кодек: AC-3
Видео: MPEG4, XviD, 720x400 (16/9), 25.000 fps, 1 588 Kbps (0.221 bit/pixel)
Аудио: AC-3, 48.0 KHz, 6 ch, 384 Kbps, CBR--Сэмпл--

MI

Код: copyText_writeLink('this.parentNode.parentNode.nextSibling.nextSibling'); General
Complete name : I:\ЗАКАЧКИ\Pravdivaja.istorija.ob.Alyh.parusah\Pravdivaja.istorija.ob.Alyh.parusah.1.seriya.iz.4.2010.O.DVDRip.IRONCLUB.avi
Format : AVI
Format/Info : Audio Video Interleave
File size : 701 MiB
Duration : 49mn 27s
Overall bit rate : 1 981 Kbps
Movie name : Pravdivaya.Istoriya.Ob.Alykh.pParusakh.1.seriya.iz.4.2010.O.DVDRip.IRONCLUB
Director : -=IRONCLUB=-
Writing application : VirtualDubMod 1.5.10.2 (build 2540/release)
Video
ID : 0
Format : MPEG-4 Visual
Format profile : Advanced Simple@L5
Format settings, BVOP : 1
Format settings, QPel : No
Format settings, GMC : No warppoints
Format settings, Matrix : Custom
Codec ID : XVID
Codec ID/Hint : XviD
Duration : 49mn 27s
Bit rate : 1 588 Kbps
Width : 720 pixels
Height : 400 pixels
Display aspect ratio : 16:9
Frame rate : 25.000 fps
Color space : YUV
Chroma subsampling : 4:2:0
Bit depth : 8 bits
Scan type : Progressive
Compression mode : Lossy
Bits/(Pixel*Frame) : 0.221
Stream size : 562 MiB (80%)
Writing library : XviD 1.2.1 (UTC 2008-12-04)
Audio
ID : 1
Format : AC-3
Format/Info : Audio Coding 3
Mode extension : CM (complete main)
Codec ID : 2000
Duration : 49mn 26s
Bit rate mode : Constant
Bit rate : 384 Kbps
Channel(s) : 6 channels
Channel positions : Front: L C R, Side: L R, LFE
Sampling rate : 48.0 KHz
Bit depth : 16 bits
Compression mode : Lossy
Stream size : 136 MiB (19%)
Alignment : Split accross interleaves
Interleave, duration : 40 ms (1.00 video frame)
Interleave, preload duration : 500 ms

Скриншоты



Постер

--
Пожалуйста, оставайтесь на раздаче как можно дольше--

_________________
Показать сообщения:    

Текущее время: Сегодня 16:35

Часовой пояс: GMT



Вы не можете начинать темы
Вы не можете отвечать на сообщения
Вы не можете редактировать свои сообщения
Вы не можете удалять свои сообщения
Вы не можете голосовать в опросах
Вы не можете прикреплять файлы к сообщениям
Вы не можете скачивать файлы
Наши партнеры: интернет магазин Ивановского трикотажа textilla.ru