Важное объявление!
У Нас Все раздачи мультитрекерные, при нуле пиров в релизах, можете смело вставать на закачку!
 
Автор Сообщение

HUNTER

Стаж:
4 года 4 месяца
Сообщений:
56749

Репутация: 101

[+] [-]
Вне форума [Профиль] [ЛС]

Правда на выбор / Разная ложь / Телохранитель по найму / У каждого своя ложь / Separate Lies
Страна: Великобритания
Жанр: Триллер, мелодрама, драма
Год выпуска: 2005
Продолжительность: 01:09:35
Перевод: Профессиональный (многоголосый закадровый) 1 канал
Cубтитры: нет
Оригинальная аудиодорожка: нет
Режиссер: Джулиан Феллоус / Julian Fellowes
В ролях: Том Уилкинсон, Эмили Уотсон, Руперт Эверетт, Хермиона Норрис, Джон Варнаби, Риченда Кэри
Описание: После автомобильной аварии, в которой погибает муж уборщицы, работающей в доме Мэннингов, Джеймс Мэннинг в результате расследования вместе с полицией, узнает, что его жена Энн изменяет ему с красавчиком соседом Биллом. По мере продвижения расследования обстоятельств аварии становится все более очевидно, что участники любовного треугольника тесно связаны с трагедией, и что мотивы Энн для совершения измены не были обусловлены лишь делами сердечными...
Доп.информация: На Первом канале фильм показывают урезанным на 10 минут.
Сэмпл: http://yadi.sk/d/wG6gewTaSNJKT
Тип релиза: HDTV 1080i
Контейнер: TS
Видео: AVC, 1920x1080 (16/9), 25.000 fps, 15.0 Mbps (0.290 bit/pixel)
Аудио: MP2, 48.0 KHz, 2 ch, 192 Kbps, CBR (Russian)

MI

Общее
Идентификатор : 3 (0x3)
Полное имя : K:\МОИ РАЗДАЧИ\У каждого своя ложь.ts
Формат : MPEG-TS
Размер файла : 7,96 Гбайт
Продолжительность : 1 ч. 9 м.
Режим общего битрейта : Переменный
Общий поток : 16,4 Мбит/сек
Видео
Идентификатор : 2141 (0x85D)
Идентификатор меню : 21004 (0x520C)
Формат : AVC
Формат/Информация : Advanced Video Codec
Профиль формата : Main@L4.0
Параметр CABAC формата : Да
Параметр ReFrames формата : 3 кадра
Идентификатор кодека : 27
Продолжительность : 1 ч. 9 м.
Битрейт : 15,4 Мбит/сек
Ширина : 1920 пикселей
Высота : 1080 пикселей
Соотношение сторон : 16:9
Частота кадров : 25,000 кадров/сек
Стандарт вещания : Component
Цветовое пространство : YUV
Субдискретизация насыщенности : 4:2:0
Битовая глубина : 8 бит
Тип развёртки : Чересстрочная
Порядок развёртки : Верхнее поле первое
Бит/(Пиксели*Кадры) : 0.297
Размер потока : 7,47 Гбайт (94%)
Основные цвета : BT.709
Характеристики трансфера : BT.709
Коэффициенты матрицы : BT.709
Аудио
Идентификатор : 2142 (0x85E)
Идентификатор меню : 21004 (0x520C)
Формат : MPEG Audio
Версия формата : Version 1
Профиль формата : Layer 2
Идентификатор кодека : 4
Продолжительность : 1 ч. 9 м.
Вид битрейта : Постоянный
Битрейт : 192 Кбит/сек
Каналы : 2 канала
Частота : 48,0 КГц
Метод сжатия : С потерями
Задержка видео : -8 мс.
Размер потока : 95,6 Мбайт (1%)
Язык : Russian

Скриншоты

Торрент перезалит 11.09.16 - из видеоряда удалены все послерекламные с названием фильма

_________________
Показать сообщения:    

Текущее время: Сегодня 00:59

Часовой пояс: GMT



Вы не можете начинать темы
Вы не можете отвечать на сообщения
Вы не можете редактировать свои сообщения
Вы не можете удалять свои сообщения
Вы не можете голосовать в опросах
Вы не можете прикреплять файлы к сообщениям
Вы не можете скачивать файлы