Важное объявление!
У Нас Все раздачи мультитрекерные, при нуле пиров в релизах, можете смело вставать на закачку!
 
Автор Сообщение

HUNTER

Стаж:
4 года 4 месяца
Сообщений:
56822

Репутация: 101

[+] [-]
Вне форума [Профиль] [ЛС]

Появляется Данстон / Dunston Checks In
Страна: США
Жанр: Комедия, Семейный
Год выпуска: 1996
Продолжительность: 01:20:03
Перевод: Профессиональный (многоголосый закадровый)
Cубтитры: нет
Оригинальная аудиодорожка: нет
Режиссер: Кен Куэпис / Ken Kwapis
В ролях: Джейсон Александер, Фэй Данауэй, Эрик Ллойд, Руперт Эверетт, Грэм Сэк, Пол Рубенс, Гленн Шэдикс, Нэтан Дэвис
Описание: Роскошный отель стоит на ушах: готовится праздник. Грандиозный карнавал должен пройти без сучка, без задоринки. Тогда управляющий получит долгожданный отпуск, отель Маджестик - еще больше богатеньких постояльцев, а его корыстная хозяйка - дополнительный барыш. Тут-то и появляется экстравагантный господин с орангутангом Данстоном. Если б знать, что новый постоялец зарабатывает воровством, а симпатяга Данстон умеет очень ловко обшаривать карманы и дамские сумочки. Но до некоторых пор все выглядит вполне пристойно… Пока Данстону вдруг не надоедает работать и он, сбежав от хозяина, не заводит дружбу с детьми управляющего. Вместе они с удовольствием пускают все вокруг себя кувырком, превратив респектабельное заведение в цирковое училище.
Сэмпл: http://multi-up.com/943434
Тип релиза: HDTV 1080i
Контейнер: TS
Видео: AVC, 1920x1080 (16/9), 25.000 fps, 15.1 Mbps (0.291 bit/pixel)
Аудио: MP2, 48.0 KHz, 2 ch, 192 Kbps, CBR (Russian)

MediaInfo

Общее
Идентификатор : 3 (0x3)
Полное имя : H:\БОЛЬШОЕ видео\ТВ записи\Появляется Данстон.TS
Формат : MPEG-TS
Размер файла : 9,20 Гбайт
Продолжительность : 1 ч. 20 м.
Режим общего битрейта : Переменный
Общий поток : 16,4 Мбит/сек
Видео
Идентификатор : 2141 (0x85D)
Идентификатор меню : 21004 (0x520C)
Формат : AVC
Формат/Информация : Advanced Video Codec
Профиль формата : Main@L4.0
Параметр CABAC формата : Да
Параметр ReFrames формата : 3 кадра
Идентификатор кодека : 27
Продолжительность : 1 ч. 20 м.
Битрейт : 15,4 Мбит/сек
Ширина : 1920 пикселей
Высота : 1080 пикселей
Соотношение сторон : 16:9
Частота кадров : 25,000 кадров/сек
Стандарт вещания : Component
Цветовое пространство : YUV
Субдискретизация насыщенности : 4:2:0
Битовая глубина : 8 бит
Тип развёртки : Чересстрочная
Порядок развёртки : Верхнее поле первое
Бит/(Пиксели*Кадры) : 0.298
Размер потока : 8,63 Гбайт (94%)
Основные цвета : BT.709
Характеристики трансфера : BT.709
Коэффициенты матрицы : BT.709
Аудио
Идентификатор : 2142 (0x85E)
Идентификатор меню : 21004 (0x520C)
Формат : MPEG Audio
Версия формата : Version 1
Профиль формата : Layer 2
Идентификатор кодека : 4
Продолжительность : 1 ч. 20 м.
Вид битрейта : Постоянный
Битрейт : 192 Кбит/сек
Каналы : 2 канала
Частота : 48,0 КГц
Метод сжатия : С потерями
Задержка видео : -18 мс.
Размер потока : 110 Мбайт (1%)
Язык : Russian

Скриншоты



_________________
Показать сообщения:    

Текущее время: Сегодня 04:53

Часовой пояс: GMT



Вы не можете начинать темы
Вы не можете отвечать на сообщения
Вы не можете редактировать свои сообщения
Вы не можете удалять свои сообщения
Вы не можете голосовать в опросах
Вы не можете прикреплять файлы к сообщениям
Вы не можете скачивать файлы