Важное объявление!
У Нас Все раздачи мультитрекерные, при нуле пиров в релизах, можете смело вставать на закачку!
 
Автор Сообщение

HUNTER

Стаж:
4 года 4 месяца
Сообщений:
56842

Репутация: 101

[+] [-]
Вне форума [Профиль] [ЛС]

ПощечинаLa gifle-
Страна: Франция, Италия
Жанр: драма, мелодрама, комедия
Год выпуска: 1974
Продолжительность: 01:43:55
Перевод: Профессиональный (двухголосый закадровый) Cinema Prestige
Перевод 2: Профессиональный (многоголосый закадровый) ТВ
Cубтитры: русские, французские, английские
Оригинальная аудиодорожка: французский
Режиссер: Клод Пиното / Claude Pinoteau
В ролях: Лино Вентура, Анни Жирардо, Изабель Аджани, Николь Курсель, Франсис Перрен, Жак Списсер, Мишель Омон, Роберт Харди, Натали Бэй, Ксавье Желен
Описание: С каждым такое бывает - наступит вдруг черная полоса в жизни, когда все, чего не коснись, плохо. Вот и на Жана Дулеана, преподавателя географии в лицее, неприятности посыпались одна за другой. В полиции на него завели дело (избил двух стражей закона, защищая студента) и ему грозит увольнение, любовница, с которой прекрасно ладил много лет, вдруг ушла, обожаемая 18-летняя дочь забросила учебу и собирается покинуть родной дом, чтобы поселиться с бойфрендом. Но жизнь, как известно, тем и прекрасна, что за черной полосой неизбежно следует белая...

Автор рипа: Vikosol

Тип релиза: BDRip 1080p
Контейнер: MKV
Видео: AVC, 1792x1080 (1.659), 18851 kbps, 24 fps, 0,406 bpp
Аудио №1: русский / AC3 / 2.0 / 48 kHz / 192 kbps / 16 bit |Cinema Prestige|
Аудио №2: русский / AC3 / 2.0 / 48 kHz / 192 kbps / 16 bit |ТВ|
Аудио №3: французский / DTS / 2.0 / 48 kHz / 755 kbps / 16 bit
Навигация по главам: есть

Лог х264

Код:
x264 [info]: frame I:822   Avg QP:15.90  size:220046
x264 [info]: frame P:31175 Avg QP:17.69  size:154327
x264 [info]: frame B:117643 Avg QP:19.40  size: 82453
x264 [info]: consecutive B-frames:  1.9%  2.5%  7.5% 11.4%  8.0% 64.1%  3.8%  0.3%  0.5%

MediaInfo

Код:
Format                           : Matroska
Format version                   : Version 4 / Version 2
File size                        : 14.5 GiB
Duration                         : 1h 43mn
Overall bit rate                 : 20.0 Mbps
Encoded date                     : UTC 2014-10-17 13:47:21
Writing application              : mkvmerge v6.8.0 ('Theme for Great Cities') 64bit built on Mar  2 2014 21:34:26
Writing library                  : libebml v1.3.0 + libmatroska v1.4.1
Video
ID                               : 1
Format                           : AVC
Format/Info                      : Advanced Video Codec
Format profile                   : High@L4.1
Format settings, CABAC           : Yes
Format settings, ReFrames        : 4 frames
Codec ID                         : V_MPEG4/ISO/AVC
Duration                         : 1h 43mn
Bit rate                         : 18.9 Mbps
Width                            : 1 792 pixels
Height                           : 1 080 pixels
Display aspect ratio             : 1.659
Frame rate                       : 24.000 fps
Color space                      : YUV
Chroma subsampling               : 4:2:0
Bit depth                        : 8 bits
Scan type                        : Progressive
Bits/(Pixel*Frame)               : 0.406
Stream size                      : 13.4 GiB (92%)
Writing library                  : x264 core 142 r2409+42 04be48a tMod [8-bit@all X86_64]
Encoding settings                : cabac=1 / ref=4 / deblock=1:-3:-3 / analyse=0x3:0x133 / me=umh / subme=11 / psy=1 / fade_compensate=0.00 / psy_rd=1.03:0.00 / mixed_ref=1 / me_range=32 / chroma_me=1 / trellis=2 / 8x8dct=1 / cqm=0 / deadzone=21,11 / fast_pskip=0 / chroma_qp_offset=-2 / threads=6 / lookahead_threads=1 / sliced_threads=0 / nr=0 / decimate=0 / interlaced=0 / bluray_compat=0 / constrained_intra=0 / fgo=0 / bframes=8 / b_pyramid=2 / b_adapt=2 / b_bias=0 / direct=3 / weightb=1 / open_gop=0 / weightp=2 / keyint=250 / keyint_min=24 / scenecut=40 / intra_refresh=0 / rc_lookahead=60 / rc=2pass / mbtree=0 / bitrate=18851 / ratetol=1.0 / qcomp=0.70 / qpmin=0:0:0 / qpmax=69:69:69 / qpstep=4 / cplxblur=20.0 / qblur=0.5 / vbv_maxrate=50000 / vbv_bufsize=62500 / nal_hrd=none / filler=0 / ip_ratio=1.30 / pb_ratio=1.20 / aq=2:0.70 / aq-sensitivity=10.00 / aq-factor=1.00:1.00:1.00 / aq2=0 / aq3=0
Language                         : English
Matrix coefficients              : BT.709
Audio #1
ID                               : 2
Format                           : AC-3
Format/Info                      : Audio Coding 3
Mode extension                   : CM (complete main)
Codec ID                         : A_AC3
Duration                         : 1h 43mn
Bit rate mode                    : Constant
Bit rate                         : 192 Kbps
Channel(s)                       : 2 channels
Channel positions                : Front: L R
Sampling rate                    : 48.0 KHz
Bit depth                        : 16 bits
Compression mode                 : Lossy
Stream size                      : 143 MiB (1%)
Title                            : Двухголосый закадровый, Cinema Prestige
Language                         : Russian
Audio #2
ID                               : 3
Format                           : AC-3
Format/Info                      : Audio Coding 3
Mode extension                   : CM (complete main)
Codec ID                         : A_AC3
Duration                         : 1h 43mn
Bit rate mode                    : Constant
Bit rate                         : 192 Kbps
Channel(s)                       : 2 channels
Channel positions                : Front: L R
Sampling rate                    : 48.0 KHz
Bit depth                        : 16 bits
Compression mode                 : Lossy
Stream size                      : 143 MiB (1%)
Title                            : Многоголосый закадровый, ТВ
Language                         : Russian
Audio #3
ID                               : 4
Format                           : DTS
Format/Info                      : Digital Theater Systems
Codec ID                         : A_DTS
Duration                         : 1h 43mn
Bit rate mode                    : Constant
Bit rate                         : 755 Kbps
Channel(s)                       : 2 channels
Channel positions                : Front: L R
Sampling rate                    : 48.0 KHz
Bit depth                        : 16 bits
Compression mode                 : Lossy
Stream size                      : 561 MiB (4%)
Language                         : French
Text #1
ID                               : 5
Format                           : UTF-8
Codec ID                         : S_TEXT/UTF8
Codec ID/Info                    : UTF-8 Plain Text
Language                         : Russian
Text #2
ID                               : 6
Format                           : UTF-8
Codec ID                         : S_TEXT/UTF8
Codec ID/Info                    : UTF-8 Plain Text
Language                         : French
Text #3
ID                               : 7
Format                           : UTF-8
Codec ID                         : S_TEXT/UTF8
Codec ID/Info                    : UTF-8 Plain Text
Language                         : English
Menu
00:00:00.000                     : :Chapter 01
00:08:45.750                     : :Chapter 02
00:16:36.375                     : :Chapter 03
00:25:02.375                     : :Chapter 04
00:33:33.290                     : :Chapter 05
00:43:49.750                     : :Chapter 06
00:50:45.750                     : :Chapter 07
00:58:55.416                     : :Chapter 08
01:06:51.708                     : :Chapter 09
01:16:30.457                     : :Chapter 10
01:24:21.457                     : :Chapter 11
01:34:06.666                     : :Chapter 12

Скриншоты


_________________
Показать сообщения:    

Текущее время: Сегодня 09:30

Часовой пояс: GMT



Вы не можете начинать темы
Вы не можете отвечать на сообщения
Вы не можете редактировать свои сообщения
Вы не можете удалять свои сообщения
Вы не можете голосовать в опросах
Вы не можете прикреплять файлы к сообщениям
Вы не можете скачивать файлы