Важное объявление!
У Нас Все раздачи мультитрекерные, при нуле пиров в релизах, можете смело вставать на закачку!
 
Автор Сообщение

HUNTER

Стаж:
4 года 4 месяца
Сообщений:
56749

Репутация: 101

[+] [-]
Вне форума [Профиль] [ЛС]

Почтальон Пэт / Postman Pat: The Movie
Страна: Великобритания, США
Жанр: Мультфильм, комедия, семейный
Продолжительность: 01:27:51
Год выпуска: 2014
Перевод: Профессиональный (дублированный) Line
Русские субтитры: нет
Режиссёр: Майкл Д’Иса-Хоган / Michael D'Isa-Hogan
Роли озвучивали: Джим Бродбент, Джейн Карр, Робин Аткин Даунс, Сьюзэн Дюрден, Грег Эллис, Руперт Гринт, Дэн Хилдебранд, Ронан Китинг, Стивен Мэнгэн, Парминдер К. Награ
Роли дублировали: Пётр Иващенко, Даниил Эльдаров
Описание: Сколько нужно почтальонов для спасения мира? Достаточно одного, если он работает в паре с любопытным котом, готовым к любым приключениям.

Качество: HDRip
Формат: AVI
Видео: XviD, 656x352 (1.864), 1048 Кбит/с, 23,976 кадр/с
Аудио: Русский, MP3, 48000 Гц, 128 Кбит/с, 2 канала (Стерео) - Dub (Line)
Субтитры: Отсутствуют

Автор рипа - ivandubskoj

MediaInfo

General
Complete name : Pochtalion.Pet.2014..HDRip.745MB.avi
Format : AVI
Format/Info : Audio Video Interleave
File size : 745 MiB
Duration : 1h 27mn
Overall bit rate : 1 186 Kbps
Writing application : VirtualDubMod 1.5.10.3 | www.virtualdub-fr.org || (build 2550/release)
Writing library : VirtualDubMod build 2550/release
Video
ID : 0
Format : MPEG-4 Visual
Format profile : Advanced Simple@L5
Format settings, BVOP : 1
Format settings, QPel : No
Format settings, GMC : No warppoints
Format settings, Matrix : Custom
Codec ID : XVID
Codec ID/Hint : XviD
Duration : 1h 27mn
Bit rate : 1 048 Kbps
Width : 656 pixels
Height : 352 pixels
Display aspect ratio : 1.864
Frame rate : 23.976 fps
Color space : YUV
Chroma subsampling : 4:2:0
Bit depth : 8 bits
Scan type : Progressive
Compression mode : Lossy
Bits/(Pixel*Frame) : 0.189
Stream size : 659 MiB (88%)
Writing library : XviD 73
Audio
ID : 1
Format : MPEG Audio
Format version : Version 1
Format profile : Layer 3
Codec ID : 55
Codec ID/Hint : MP3
Duration : 1h 27mn
Bit rate mode : Constant
Bit rate : 128 Kbps
Channel(s) : 2 channels
Sampling rate : 48.0 KHz
Compression mode : Lossy
Stream size : 80.4 MiB (11%)
Alignment : Aligned on interleaves
Interleave, duration : 42 ms (1.00 video frame)
Interleave, preload duration : 504 ms
Writing library : LAME3.99r
Encoding settings : -m s -V 4 -q 0 -lowpass 17 -b 128

Скриншоты


_________________
Показать сообщения:    

Текущее время: Сегодня 21:34

Часовой пояс: GMT



Вы не можете начинать темы
Вы не можете отвечать на сообщения
Вы не можете редактировать свои сообщения
Вы не можете удалять свои сообщения
Вы не можете голосовать в опросах
Вы не можете прикреплять файлы к сообщениям
Вы не можете скачивать файлы