Важное объявление!
У Нас Все раздачи мультитрекерные, при нуле пиров в релизах, можете смело вставать на закачку!
 
Автор Сообщение

HUNTER

Стаж:
4 года 4 месяца
Сообщений:
56719

Репутация: 101

[+] [-]
Вне форума [Профиль] [ЛС]

Почемучка: "Информатика" Новые серии-

Год выпуска: 2012
Страна: Россия
Сайт производителя: нет
Тематика: Мульт, ВИДЕО, ликбез, мультфильм, обучение
Тип материала: Видеоурок-Продолжительность: 4 х ~ 00:12:55
Автор: не известен-Язык: Русский
Субтитры: нет-Описание: Новые серии программы. Старый мудрый Процессор и два его верных помощника, Бит и Байт, снова с нами!
Кроме того, в программе появились новые герои: вечно всё забывающая, не всегда оперативная Память, мудрый, много повидавший Контроллер и хитрый, озорной Вирус. Вместе с другими, уже знакомыми нам персонажами, они помогут зрителям заглянуть в удивительный мир компьютеров и узнать много полезного и интересного.
-Качество: DVDRip
Формат: mpg
Видео кодек: MPEG2
Аудио кодек: MPEG Audio
Видео: MPEG Video, PAL, 5 000 Kbps, 720x576 pixel, 25 fps
Аудио: MPEG Audio, 192 Kbps, 2 channels, 48.0 KHz-

Содержание

03. Дигитайзер
04. Процессор
05. Интернет
06. БИОСФормат: MPEG-PS

MediaInfo

Код: copyText_writeLink('this.parentNode.parentNode.nextSibling.nextSibling'); Общее
Полное имя : E:\Обучение\Pochemuchka. New\3 Digitaizer.mpg
Формат : MPEG-PS
Размер файла : 380 Мбайт
Продолжительность : 12 м.
Режим общего битрейта : Переменный
Общий поток : 4109 Кбит/сек
Видео
Идентификатор : 224 (0xE0)
Формат : MPEG Video
Версия формата : Version 2
Профиль формата : Main@Main
Параметр BVOP формата : Да
Параметр матрицы формата : Выборочная
Параметр GOP формата : M=3, N=12
Продолжительность : 12 м.
Вид битрейта : Переменный
Битрейт : 3835 Кбит/сек
Максимальный битрейт : 5000 Кбит/сек
Ширина : 720 пикселей
Высота : 576 пикселей
Соотношение сторон : 4:3
Частота кадров : 25,000 кадров/сек
Стандарт вещания : PAL
Цветовое пространство : YUV
Субдискретизация насыщенности : 4:2:0
Битовая глубина : 8 бит
Тип развёртки : Чересстрочная
Порядок развёртки : Верхнее поле первое
Метод сжатия : С потерями
Бит/(Пиксели*Кадры) : 0.370
Размер потока : 354 Мбайт (93%)
Аудио
Идентификатор : 192 (0xC0)
Формат : MPEG Audio
Версия формата : Version 1
Профиль формата : Layer 2
Продолжительность : 12 м.
Вид битрейта : Постоянный
Битрейт : 192 Кбит/сек
Каналы : 2 канала
Частота : 48,0 КГц
Метод сжатия : С потерями
Задержка видео : -746 мс.
Размер потока : 17,8 Мбайт (5%)
- -

_________________
Показать сообщения:    

Текущее время: Сегодня 21:29

Часовой пояс: GMT



Вы не можете начинать темы
Вы не можете отвечать на сообщения
Вы не можете редактировать свои сообщения
Вы не можете удалять свои сообщения
Вы не можете голосовать в опросах
Вы не можете прикреплять файлы к сообщениям
Вы не можете скачивать файлы