Важное объявление!
У Нас Все раздачи мультитрекерные, при нуле пиров в релизах, можете смело вставать на закачку!
 
Автор Сообщение

HUNTER

Стаж:
4 года 4 месяца
Сообщений:
56842

Репутация: 101

[+] [-]
Вне форума [Профиль] [ЛС]

Поцелуй сквозь стену
Страна: Россия
Жанр: фантастика, мелодрама, комедия
Год выпуска: 2011
Продолжительность: 01:30:06
Режиссер: Вартан Акопян
В ролях: Антон Шагин, Карина Андоленко, Павел Воля, Александр Адабашьян, Михаил Тарабукин, Иван Охлобыстин, Анна Бердникова, Сергей Газаров, Светлана Немоляева, Олег Тополянский
Описание: то нужно сделать, чтобы добиться любви дерзкой журналистки, да еще по имени Алиса? Подарить ей лютики? Сказать: «Алиса, лисичка моя». Подкатить на карете? Или тупо завалить ее деньгами и подарками? Пока Кеша, помощник знаменитого фокусника, ломает над этим голову, его увольняют с работы и он остается с двумя десятками в кармане и чувством, что жизнь не удалась. Да и те клянчит какой-то бродяга, обещая исполнить любое его желание. А после встречи с ним, Кеша осознает: Он умеет проходить сквозь стены! Его новый дар — путь к счастью. Но даже, если все стены мира — не помеха, как пробиться к сердцу любимой?
Меню: нет
Качество Видео: BDRip (1080p)
Формат Видео: MKV
Видео: MPEG-4 AVC, 1920x816 (2,35:1), 9632 Kbps, 23.976 fps
Аудио: DTS, 6 ch, 48 KHz, 1510 Kbps

MediaInfo

General
Complete name : X:\Blue-ray\Fid\Potseluy.skvoz.stenu.2011.x264.BDRip.(1080p).DEOSS77.mkv
Format : Matroska
File size : 7.01 GiB
Duration : 1h 30mn
Overall bit rate : 11.1 Mbps
Encoded date : UTC 2011-03-11 12:54:12
Writing application : mkvmerge v3.4.0 ('Rapunzel') сборка от May 15 2010 09:38:20
Writing library : libebml v0.8.0 + libmatroska v0.9.0
Video
ID : 1
Format : AVC
Format/Info : Advanced Video Codec
Format profile : High@L4.1
Format settings, CABAC : Yes
Format settings, ReFrames : 5 frames
Codec ID : V_MPEG4/ISO/AVC
Duration : 1h 30mn
Bit rate : 9 632 Kbps
Width : 1 920 pixels
Height : 816 pixels
Display aspect ratio : 2.35:1
Frame rate : 23.976 fps
Color space : YUV
Chroma subsampling : 4:2:0
Bit depth : 8 bits
Scan type : Progressive
Bits/(Pixel*Frame) : 0.256
Stream size : 5.92 GiB (84%)
Writing library : x264 core 112 r1867 22bfd31
Encoding settings : cabac=1 / ref=5 / deblock=1:-3:-3 / analyse=0x3:0x133 / me=umh / subme=10 / psy=1 / psy_rd=1.05:0.10 / mixed_ref=1 / me_range=64 / chroma_me=1 / trellis=2 / 8x8dct=1 / cqm=0 / deadzone=21,11 / fast_pskip=1 / chroma_qp_offset=-3 / threads=9 / sliced_threads=0 / nr=0 / decimate=1 / interlaced=0 / constrained_intra=0 / bframes=8 / b_pyramid=2 / b_adapt=2 / b_bias=0 / direct=3 / weightb=1 / open_gop=0 / weightp=2 / keyint=250 / keyint_min=23 / scenecut=40 / intra_refresh=0 / rc_lookahead=40 / rc=2pass / mbtree=1 / bitrate=9632 / ratetol=1.0 / qcomp=0.60 / qpmin=10 / qpmax=51 / qpstep=4 / cplxblur=20.0 / qblur=0.5 / vbv_maxrate=50000 / vbv_bufsize=62500 / nal_hrd=none / ip_ratio=1.40 / aq=1:1.00
Language : English
Audio
ID : 2
Format : DTS
Format/Info : Digital Theater Systems
Codec ID : A_DTS
Duration : 1h 30mn
Bit rate mode : Constant
Bit rate : 1 510 Kbps
Channel(s) : 6 channels
Channel positions : Front: L C R, Side: L R, LFE
Sampling rate : 48.0 KHz
Bit depth : 16 bits
Stream size : 973 MiB (14%)

Скриншоты


_________________
Показать сообщения:    

Текущее время: Сегодня 10:48

Часовой пояс: GMT



Вы не можете начинать темы
Вы не можете отвечать на сообщения
Вы не можете редактировать свои сообщения
Вы не можете удалять свои сообщения
Вы не можете голосовать в опросах
Вы не можете прикреплять файлы к сообщениям
Вы не можете скачивать файлы