Важное объявление!
У Нас Все раздачи мультитрекерные, при нуле пиров в релизах, можете смело вставать на закачку!
 
Автор Сообщение

HUNTER

Стаж:
4 года 4 месяца
Сообщений:
56755

Репутация: 101

[+] [-]
Вне форума [Профиль] [ЛС]

Поцелуй Иуды / Judas Kiss
Страна: США
Жанр: Драма
Год выпуска: 2011
Продолжительность: 01:34:50
Перевод: Любительский (многоголосый закадровый) (Babylon films & Wayland team)
Оригинальная аудиодорожка: Английский
Субтитры: Русские, English (SRT)
Режиссер: Дж. Т. Тепнапа / J.T. Tepnapa
В ролях: Брент Корригэн / Brent Corrigan, Ричард Хэрмон / Richard Harmon, Женевьев Бюкнер / Genevieve Buechner, Чарли Дэвид / Charlie David, Лора Кенни / Laura Kenny и др.
Описание: Причуда во времени и пространстве дает режиссеру удачный шанс изменить свою судьбу, когда он посещает свою своеобразную альма-матер.
Качество видео: BDRip 720p
Формат видео: MKV
Видео: x264; 1280x720 (16:9); 23,976 fps; ~5500 kbps; 0,25 bit/pixel
Аудио 1 : AC3, 48 kHz, 384 kbps, 16 bits; 5.1 (Front: L C R, Side: L R, LFE) | MVO (Русский)
Аудио 2 : AC3, 48 kHz, 384 kbps, 16 bits; 5.1 (Front: L C R, Side: L R, LFE) | Original (English)

СЕМПЛ
MediaInfo
Общее
Полное имя : Judas Kiss (2011) BDRip.mkv
Формат : Matroska
Версия формата : Version 4 / Version 2
Размер файла : 4,15 Гбайт
Продолжительность : 1 ч. 34 м.
Общий поток : 6264 Кбит/сек
Название фильма : Judas Kiss (2011) BDRip K_I
Дата кодирования : UTC 2014-05-06 16:03:42
Программа кодирования : mkvmerge v6.9.1 ('Blue Panther') 64bit built on Apr 18 2014 18:23:38
Библиотека кодирования : libebml v1.3.0 + libmatroska v1.4.1
Видео
Идентификатор : 1
Формат : AVC
Формат/Информация : Advanced Video Codec
Профиль формата : High@L4.1
Параметр CABAC формата : Да
Параметр ReFrames формата : 5 кадров
Идентификатор кодека : V_MPEG4/ISO/AVC
Продолжительность : 1 ч. 34 м.
Битрейт : 5500 Кбит/сек
Ширина : 1280 пикселей
Высота : 720 пикселей
Соотношение сторон : 16:9
Режим частоты кадров : Постоянный
Частота кадров : 23,976 кадра/сек
Цветовое пространство : YUV
Субдискретизация насыщенности : 4:2:0
Битовая глубина : 8 бит
Тип развёртки : Прогрессивная
Бит/(Пиксели*Кадры) : 0.249
Размер потока : 3,56 Гбайт (86%)
Библиотека кодирования : x264 core 142 r2389 956c8d8
Настройки программы : cabac=1 / ref=5 / deblock=1:-2:-1 / analyse=0x3:0x133 / me=umh / subme=10 / psy=1 / psy_rd=1.00:0.20 / mixed_ref=1 / me_range=24 / chroma_me=1 / trellis=2 / 8x8dct=1 / cqm=0 / deadzone=21,11 / fast_pskip=1 / chroma_qp_offset=-3 / threads=6 / lookahead_threads=1 / sliced_threads=0 / nr=0 / decimate=1 / interlaced=0 / bluray_compat=0 / constrained_intra=0 / bframes=6 / b_pyramid=2 / b_adapt=2 / b_bias=0 / direct=3 / weightb=1 / open_gop=0 / weightp=2 / keyint=250 / keyint_min=23 / scenecut=40 / intra_refresh=0 / rc_lookahead=60 / rc=2pass / mbtree=1 / bitrate=5500 / ratetol=1.0 / qcomp=0.60 / qpmin=0 / qpmax=69 / qpstep=4 / cplxblur=20.0 / qblur=0.5 / ip_ratio=1.40 / aq=1:1.00
Default : Да
Forced : Нет
Аудио #1
Идентификатор : 2
Формат : AC-3
Формат/Информация : Audio Coding 3
Расширение режима : CM (complete main)
Параметр Endianness формата : Big
Идентификатор кодека : A_AC3
Продолжительность : 1 ч. 34 м.
Вид битрейта : Постоянный
Битрейт : 384 Кбит/сек
Каналы : 6 каналов
Расположение каналов : Front: L C R, Side: L R, LFE
Частота : 48,0 КГц
Битовая глубина : 16 бит
Метод сжатия : С потерями
Размер потока : 261 Мбайт (6%)
Язык : Russian
Default : Да
Forced : Нет
Аудио #2
Идентификатор : 3
Формат : AC-3
Формат/Информация : Audio Coding 3
Расширение режима : CM (complete main)
Параметр Endianness формата : Big
Идентификатор кодека : A_AC3
Продолжительность : 1 ч. 34 м.
Вид битрейта : Постоянный
Битрейт : 384 Кбит/сек
Каналы : 6 каналов
Расположение каналов : Front: L C R, Side: L R, LFE
Частота : 48,0 КГц
Битовая глубина : 16 бит
Метод сжатия : С потерями
Размер потока : 261 Мбайт (6%)
Язык : English
Default : Нет
Forced : Нет
Текст #1
Идентификатор : 4
Формат : UTF-8
Идентификатор кодека : S_TEXT/UTF8
Идентификатор кодека/Информация : UTF-8 Plain Text
Язык : Russian
Default : Нет
Forced : Нет
Текст #2
Идентификатор : 5
Формат : UTF-8
Идентификатор кодека : S_TEXT/UTF8
Идентификатор кодека/Информация : UTF-8 Plain Text
Язык : English
Default : Нет
Forced : Нет
Скриншот с названием фильмаСкриншоты

_________________
Показать сообщения:    

Текущее время: Сегодня 17:17

Часовой пояс: GMT



Вы не можете начинать темы
Вы не можете отвечать на сообщения
Вы не можете редактировать свои сообщения
Вы не можете удалять свои сообщения
Вы не можете голосовать в опросах
Вы не можете прикреплять файлы к сообщениям
Вы не можете скачивать файлы