Важное объявление!
У Нас Все раздачи мультитрекерные, при нуле пиров в релизах, можете смело вставать на закачку!
 
Автор Сообщение

HUNTER

Стаж:
4 года 4 месяца
Сообщений:
56839

Репутация: 101

[+] [-]
Вне форума [Профиль] [ЛС]

Похождения императора / The Emperor's New Groove
Страна: США
Жанр: фэнтези, комедия, приключения, семейный
Продолжительность: 01:18:36
Год выпуска: 2000
Перевод: Профессиональный (дублированный)
Русские субтитры: есть
Режиссёр: Марк Диндал / Mark Dindal
Описание: Как и положено царственной особе, император Куско — очень занятой человек. Но последнее его занятие грозит обернуться большими неприятностями: правитель решил построить для себя водный парк, предварительно снеся одну из деревень королевства.
Этот план непременно бы воплотился в жизнь, если бы неприятность не произошла уже с самим императором: недруги превратили его в ламу! Но напасти на этом не закончились: единственным человеком, который мог помочь императору вернуться на трон и в собственное тело, оказывается житель деревни, обреченной на снос. Дорога домой для Куско обещает быть очень долгой.
Семпл: http://multi-up.com/913462
Качество: BDRip-AVC Исходник
Формат: MKV
Видео: 1152x688 (1.674), 23.976 fps, AVC, ~1750 Kbps, 0.092 bits/pixel
Аудио 1: Russian, 48.0 KHz, AC3, 6 ch, 448 Kbps
Аудио 2: English, 48.0 KHz, AC3, 6 ch, 448 Kbps
Субтитры: русские, английские

Log

x264.exe: --pass 2 --bitrate 1750 --preset medium --ref 9 --deblock -1:-1 --merange 48 --bframes 8 --direct auto --b-adapt 2 --trellis 2 --no-fast-pskip --psy-rd 1.00:0.10 --partitions all --subme 11 --me umh --rc-lookahead 50 --stats "D:\00003.log" --sar 1:1 --output "D:\00003.mp4" "D:\Temp\0242.avs"
avs [info]: 1152x688p 1:1 @ 2500000/104271 fps (cfr)
x264 [info]: using SAR=1/1
x264 [info]: using cpu capabilities: MMX2 SSE2Fast SSEMisalign LZCNT
x264 [info]: profile High, level 4.0
Failed to open D:\torrent\EMPERORS_AND_KRONKS_NEW_GROOVE_BD_EUR\BDMV\CLIPINF\00003.clpi
Failed to open D:\torrent\EMPERORS_AND_KRONKS_NEW_GROOVE_BD_EUR\BDMV\BACKUP/CLIPINF\00003.clpi
x264 [info]: frame I:1035 Avg QP:13.30 size:110262
x264 [info]: frame P:30443 Avg QP:18.31 size: 17691
x264 [info]: frame B:81587 Avg QP:20.87 size: 4647
x264 [info]: consecutive B-frames: 4.3% 5.0% 12.8% 44.1% 15.1% 9.7% 2.8% 3.6% 2.7%
x264 [info]: mb I I16..4: 18.9% 51.9% 29.3%
x264 [info]: mb P I16..4: 1.3% 2.7% 1.8% P16..4: 27.9% 24.1% 6.9% 2.1% 0.4% skip:32.7%
x264 [info]: mb B I16..4: 0.1% 0.2% 0.2% B16..8: 27.5% 8.2% 1.5% direct: 1.1% skip:61.3% L0:48.7% L1:48.0% BI: 3.2%
x264 [info]: 8x8 transform intra:46.4% inter:31.1%
x264 [info]: direct mvs spatial:95.5% temporal:4.5%
x264 [info]: coded y,uvDC,uvAC intra: 66.2% 61.7% 48.3% inter: 5.8% 5.3% 2.2%
x264 [info]: i16 v,h,dc,p: 39% 14% 15% 32%
x264 [info]: i8 v,h,dc,ddl,ddr,vr,hd,vl,hu: 9% 7% 14% 11% 12% 11% 12% 11% 14%
x264 [info]: i4 v,h,dc,ddl,ddr,vr,hd,vl,hu: 13% 8% 14% 11% 12% 10% 10% 9% 12%
x264 [info]: i8c dc,h,v,p: 40% 35% 17% 8%
x264 [info]: Weighted P-Frames: Y:1.8% UV:1.1%
x264 [info]: ref P L0: 46.3% 2.9% 18.7% 9.0% 6.5% 6.0% 4.7% 2.9% 2.4% 0.6% 0.0%
x264 [info]: ref B L0: 60.6% 14.3% 10.1% 4.8% 4.1% 3.4% 2.1% 0.6%
x264 [info]: ref B L1: 88.1% 11.9%
x264 [info]: kb/s:1750.44

Подробные технические данные

GeneralUnique ID : 198242393160704361717404146875814649545 (0x9524189B8D0993F9952B989FFCB81EC9)Complete name : D:\The Emperor's New Groove.mkvFormat : MatroskaFormat version : Version 4 / Version 2File size : 1.45 GiBDuration : 1h 18mnOverall bit rate : 2 649 KbpsEncoded date : UTC 2013-10-15 12:49:34Writing application : mkvmerge v6.4.1 ('Omega Point') built on Sep 16 2013 22:05:10Writing library : libebml v1.3.0 + libmatroska v1.4.1
VideoID : 1Format : AVCFormat/Info : Advanced Video CodecFormat profile : High@L4.0Format settings, CABAC : YesFormat settings, ReFrames : 9 framesCodec ID : V_MPEG4/ISO/AVCDuration : 1h 18mnBit rate : 1 750 KbpsWidth : 1 152 pixelsHeight : 688 pixelsDisplay aspect ratio : 1.674Frame rate mode : ConstantFrame rate : 23.976 fpsColor space : YUVChroma subsampling : 4:2:0Bit depth : 8 bitsScan type : ProgressiveBits/(Pixel*Frame) : 0.092Stream size : 956 MiB (64%)Writing library : x264 core 133 r2334 a3ac64bEncoding settings : cabac=1 / ref=9 / deblock=1:-1:-1 / analyse=0x3:0x133 / me=umh / subme=11 / psy=1 / psy_rd=1.00:0.10 / mixed_ref=1 / me_range=48 / chroma_me=1 / trellis=2 / 8x8dct=1 / cqm=0 / deadzone=21,11 / fast_pskip=0 / chroma_qp_offset=-3 / threads=6 / lookahead_threads=1 / sliced_threads=0 / nr=0 / decimate=1 / interlaced=0 / bluray_compat=0 / constrained_intra=0 / bframes=8 / b_pyramid=2 / b_adapt=2 / b_bias=0 / direct=3 / weightb=1 / open_gop=0 / weightp=2 / keyint=250 / keyint_min=23 / scenecut=40 / intra_refresh=0 / rc_lookahead=50 / rc=2pass / mbtree=1 / bitrate=1750 / ratetol=1.0 / qcomp=0.60 / qpmin=0 / qpmax=69 / qpstep=4 / cplxblur=20.0 / qblur=0.5 / ip_ratio=1.40 / aq=1:1.00Default : YesForced : No
Audio #1ID : 2Format : AC-3Format/Info : Audio Coding 3Mode extension : CM (complete main)Format settings, Endianness : BigCodec ID : A_AC3Duration : 1h 18mnBit rate mode : ConstantBit rate : 448 KbpsChannel count : 6 channelsChannel positions : Front: L C R, Side: L R, LFESampling rate : 48.0 KHzBit depth : 16 bitsCompression mode : LossyStream size : 252 MiB (17%)Language : RussianDefault : YesForced : No
Audio #2ID : 3Format : AC-3Format/Info : Audio Coding 3Mode extension : CM (complete main)Format settings, Endianness : BigCodec ID : A_AC3Duration : 1h 18mnBit rate mode : ConstantBit rate : 448 KbpsChannel count : 6 channelsChannel positions : Front: L C R, Side: L R, LFESampling rate : 48.0 KHzBit depth : 16 bitsCompression mode : LossyStream size : 252 MiB (17%)Language : EnglishDefault : NoForced : No
Text #1ID : 4Format : UTF-8Codec ID : S_TEXT/UTF8Codec ID/Info : UTF-8 Plain TextLanguage : RussianDefault : NoForced : No
Text #2ID : 5Format : UTF-8Codec ID : S_TEXT/UTF8Codec ID/Info : UTF-8 Plain TextLanguage : EnglishDefault : NoForced : No

Скриншоты


_________________
Показать сообщения:    

Текущее время: Сегодня 23:47

Часовой пояс: GMT



Вы не можете начинать темы
Вы не можете отвечать на сообщения
Вы не можете редактировать свои сообщения
Вы не можете удалять свои сообщения
Вы не можете голосовать в опросах
Вы не можете прикреплять файлы к сообщениям
Вы не можете скачивать файлы