Важное объявление!
У Нас Все раздачи мультитрекерные, при нуле пиров в релизах, можете смело вставать на закачку!
 
Автор Сообщение

HUNTER

Стаж:
4 года 4 месяца
Сообщений:
56719

Репутация: 101

[+] [-]
Вне форума [Профиль] [ЛС]

Похождения бравого солдата Швейка---
Год выпуска: 2008-2012
Страна: Украина, Чехия, Россия
Студия: «Ялта-Фильм Анимейшен»
Жанр: мультфильм, комедия, семейный, военный
Продолжительность: 1:14:01
Оригинальная аудиодорожка: русский
Режиссер: Ринат Газизов / Rinat Gazizov
В ролях: Александр Игнатуша (Бравый солдат Швейк), Александр Завальский (Поручик Лукаш), Влад Заднепровский (Фельдкурат Отто Кац), Давид Бабаев (Подпоручик Дуб), Владислав Пупков (Рассказчик)...--Описание: Йозефа Швейка, чешского торговца собаками, которого уже дисквалифицировали из армии как форменного идиота, снова призывают на службу в качестве пушечного мяса во время Первой мировой войны. Ему докучали бюрократы, полицейские, доктора и духовенство, его «продавали» от одного офицера другому, но добродушный, болтливый и бесхитростный солдат Швейк все же неохотно приближается к линии фронта и, очевидно, к верной смерти…-- --Исходник: DVD5 R5
Тип релиза: DVDRip-AVC
Контейнер: MKV
Видео кодек: H264
Аудио кодек: AC3
Видео: 720x552@1024x552 (1,855:1), 25 fps, H264 ~ 2494 kbps avg, 0.251 bit/pixel
Аудио: 48 kHz, AC3, 2 ch, 320.00 kbps-- --

MediaInfo

Код: copyText_writeLink('this.parentNode.parentNode.nextSibling.nextSibling'); Общее
Полное имя : Pohozhdenija.bravogo.soldata.Shvejka.2009.DVDRip-AVC.mkv
Формат : Matroska
Версия формата : Version 2
Размер файла : 1,46 Гбайт
Продолжительность : 1 ч. 14 м.
Общий поток : 2815 Кбит/сек
Дата кодирования : UTC 2012-11-20 03:22:33
Программа кодирования : mkvmerge v5.0.1 ('Es ist Sommer') built on Nov 6 2011 16:23:40
Библиотека кодирования : libebml v1.2.2 + libmatroska v1.3.0
Видео
Идентификатор : 1
Формат : AVC
Формат/Информация : Advanced Video Codec
Профиль формата : [url=mailto:High@L4.1]High@L4.1[/url]
Параметр CABAC формата : Да
Параметр ReFrames формата : 11 кадров
Идентификатор кодека : V_MPEG4/ISO/AVC
Продолжительность : 1 ч. 14 м.
Битрейт : 2494 Кбит/сек
Ширина : 720 пикселей
Высота : 552 пикселя
Соотношение сторон : 1,855
Частота кадров : 25,000 кадров/сек
Цветовое пространство : YUV
Субдискретизация насыщенности : 4:2:0
Битовая глубина : 8 бит
Тип развёртки : Прогрессивная
Бит/(Пиксели*Кадры) : 0.251
Размер потока : 1,26 Гбайт (87%)
Библиотека кодирования : x264 core 119 r2106 07efeb4
Настройки программы : cabac=1 / ref=11 / deblock=1:-2:-1 / analyse=0x3:0x113 / me=umh / subme=9 / psy=1 / psy_rd=1.00:0.20 / mixed_ref=1 / me_range=32 / chroma_me=1 / trellis=1 / 8x8dct=1 / cqm=0 / deadzone=21,11 / fast_pskip=0 / chroma_qp_offset=-3 / threads=3 / sliced_threads=0 / nr=0 / decimate=0 / interlaced=0 / bluray_compat=0 / constrained_intra=0 / bframes=8 / b_pyramid=2 / b_adapt=2 / b_bias=0 / direct=3 / weightb=1 / open_gop=0 / weightp=2 / keyint=250 / keyint_min=25 / scenecut=40 / intra_refresh=0 / rc_lookahead=60 / rc=2pass / mbtree=1 / bitrate=2494 / ratetol=1.0 / qcomp=0.60 / qpmin=0 / qpmax=69 / qpstep=4 / cplxblur=20.0 / qblur=0.5 / ip_ratio=1.40 / aq=1:1.00
Default : Да
Forced : Нет
Аудио
Идентификатор : 2
Формат : AC-3
Формат/Информация : Audio Coding 3
Расширение режима : CM (complete main)
Идентификатор кодека : A_AC3
Продолжительность : 1 ч. 14 м.
Вид битрейта : Постоянный
Битрейт : 320 Кбит/сек
Каналы : 2 канала
Расположение каналов : Front: L R
Частота : 48,0 КГц
Битовая глубина : 16 бит
Метод сжатия : С потерями
Размер потока : 169 Мбайт (11%)
Default : Да
Forced : Нет

Доп. информация

Рип с чешского издания.
--

Постер

--

Пожалуйста, оставайтесь на раздаче как можно дольше--

_________________
Показать сообщения:    

Текущее время: Сегодня 23:05

Часовой пояс: GMT



Вы не можете начинать темы
Вы не можете отвечать на сообщения
Вы не можете редактировать свои сообщения
Вы не можете удалять свои сообщения
Вы не можете голосовать в опросах
Вы не можете прикреплять файлы к сообщениям
Вы не можете скачивать файлы