Важное объявление!
У Нас Все раздачи мультитрекерные, при нуле пиров в релизах, можете смело вставать на закачку!
 
Автор Сообщение

HUNTER

Стаж:
4 года 4 месяца
Сообщений:
56733

Репутация: 101

[+] [-]
Вне форума [Профиль] [ЛС]

Потрошитель разума (мозга) / Аванпост / У холмов есть глаза 3 / The Outpost / Mind Ripper / Hills Have Eyes Part 3
Страна: США
Студия: Kushner-Locke Company
Жанр: фантастика, ужасы
Год выпуска: 1995
Продолжительность: 01:31:17
Перевод: Авторский (одноголосый закадровый) Визгунов
Перевод 2: Авторский (одноголосый закадровый) Иванов
Перевод 3: Профессиональный (многоголосый закадровый)
Cубтитры: нет
Оригинальная аудиодорожка: английский
Режиссер: Джо Гэйтон / Joe Gayton)
В ролях: Лэнс Хэнриксен, Дэн Блом, Джон Дил, Наташа Грегсон Вагнер
Описание: Серьезно раненый человек спасен бригадой ученых, работающих на компанию «Gentec». Ученые впрыскивают ему экспериментальную сыворотку, изобретенную Джимом Стоктоном. Шесть месяцев спустя объект эксперимента, названный Тором, умирает. Руководитель группы ученых Алекс пытается спасти человека и обращается за помощью к самому Стоктону, который покинул проект три месяца назад в протест против направления, в котором начали развиваться исследования. Ученая Джоанна обнаруживает, что Алекс ввел Тору огромную дозу сыворотки, что привело к его гибели. Все дело в том, что проект перешел к военному ведомству, которые начали исследования в области создания суперсолдата. Тем временем Тор оживает, убивает множество ученых и начинает наводить панику в подземном бункере лаборатории. Оставшимся в живых ученым необходимо найти способ остановить суперсолдата…
На кинофестивале «Fantasporto» картина номинировалась на главный приз. Интересно, что первоначально это должен был быть фильм «Холмы имеют глаза-3». Бюджет фильма составил 8 миллионов долларов.
Доп. информация: Дорожка с Визгуновым взята из личной колекции.Дорожки Иванова и Профф взяты с этих раздач http://rutracker.org/forum/tracker.php?nm=Mind%20Ripper авторам большое спасибо.
За синхронизацию огромное спасибо Нордер.
При пересборе двд были использованы программы:
PgcDemux - разделение компонентов диска на файлы
Muxman - мультиплексирование и авторинг DVD
VobBlanker - реавторинг DVD

Скрин завершения проекта

Бонусы: Разделение по главам отсутствует.
Сэмпл: http://sendfile.su/1134093
Тип релиза: DVD5 (Custom)
Контейнер: DVD-Video
Видео: PAL 16:9 (720x576) VBR Auto Pan&Scan
Аудио: Russian (Dolby AC3, 192 Kbps, 2 ch)
Аудио 2: Russian (Dolby AC3, 192 Kbps, 2 ch)
Аудио 3: Russian (Dolby AC3, 192 Kbps, 2 ch)
Аудио 4: English (Dolby AC3, 192 Kbps, 2 ch)

DVDInfo

Size: 4.08 Gb ( 4 277 394 KBytes ) - DVD-5
Enabled regions: 1, 2, 3, 4, 5, 6, 7, 8
VTS_01 :
Play Length: 00:00:24
Video: PAL 16:9 (720x576) VBR, Auto Pan&Scan
VTS_02 :
Play Length: 01:31:17
Video: PAL 16:9 (720x576) VBR, Auto Pan&Scan
Audio:
Russian (Dolby AC3, 2 ch)
Russian (Dolby AC3, 2 ch)
Russian (Dolby AC3, 2 ch)
English (Dolby AC3, 2 ch)
Menu Video:
PAL 16:9 (720x576) VBR
Auto Pan&Scan
Menu Subtitles:
Not specified
Menu English Language Unit :
Root Menu
Chapter (PTT) Menu

MediaInfo

General
Complete name : K:\Mind Ripper_1995\VIDEO_TS\VTS_02_1.VOB
Format : MPEG-PS
File size : 1 024 MiB
Duration : 21mn 33s
Overall bit rate mode : Variable
Overall bit rate : 6 639 Kbps
Video
ID : 224 (0xE0)
Format : MPEG Video
Format version : Version 2
Format profile : Main@Main
Format settings, BVOP : Yes
Format settings, Matrix : Custom
Format settings, GOP : M=3, N=15
Duration : 21mn 33s
Bit rate mode : Variable
Bit rate : 5 483 Kbps
Maximum bit rate : 7 500 Kbps
Width : 720 pixels
Height : 576 pixels
Display aspect ratio : 16:9
Frame rate : 25.000 fps
Standard : PAL
Color space : YUV
Chroma subsampling : 4:2:0
Bit depth : 8 bits
Scan type : Interlaced
Scan order : Top Field First
Compression mode : Lossy
Bits/(Pixel*Frame) : 0.529
Stream size : 846 MiB (83%)
Color primaries : BT.601 PAL
Transfer characteristics : BT.470 System B, BT.470 System G
Matrix coefficients : BT.601
Audio #1
ID : 189 (0xBD)-128 (0x80)
Format : AC-3
Format/Info : Audio Coding 3
Mode extension : CM (complete main)
Format settings, Endianness : Big
Muxing mode : DVD-Video
Duration : 21mn 33s
Bit rate mode : Constant
Bit rate : 192 Kbps
Channel(s) : 2 channels
Channel positions : Front: L R
Sampling rate : 48.0 KHz
Bit depth : 16 bits
Compression mode : Lossy
Stream size : 29.6 MiB (3%)
Audio #2
ID : 189 (0xBD)-129 (0x81)
Format : AC-3
Format/Info : Audio Coding 3
Mode extension : CM (complete main)
Format settings, Endianness : Big
Muxing mode : DVD-Video
Duration : 21mn 33s
Bit rate mode : Constant
Bit rate : 192 Kbps
Channel(s) : 2 channels
Channel positions : Front: L R
Sampling rate : 48.0 KHz
Bit depth : 16 bits
Compression mode : Lossy
Stream size : 29.6 MiB (3%)
Audio #3
ID : 189 (0xBD)-130 (0x82)
Format : AC-3
Format/Info : Audio Coding 3
Mode extension : CM (complete main)
Format settings, Endianness : Big
Muxing mode : DVD-Video
Duration : 21mn 33s
Bit rate mode : Constant
Bit rate : 192 Kbps
Channel(s) : 2 channels
Channel positions : Front: L R
Sampling rate : 48.0 KHz
Bit depth : 16 bits
Compression mode : Lossy
Stream size : 29.6 MiB (3%)
Audio #4
ID : 189 (0xBD)-131 (0x83)
Format : AC-3
Format/Info : Audio Coding 3
Mode extension : CM (complete main)
Format settings, Endianness : Big
Muxing mode : DVD-Video
Duration : 21mn 33s
Bit rate mode : Constant
Bit rate : 448 Kbps
Channel(s) : 2 channels
Channel positions : Front: L R
Sampling rate : 48.0 KHz
Bit depth : 16 bits
Compression mode : Lossy
Stream size : 69.1 MiB (7%)
Menu

Скриншоты меню

Скриншоты


_________________
Показать сообщения:    

Текущее время: Сегодня 02:44

Часовой пояс: GMT



Вы не можете начинать темы
Вы не можете отвечать на сообщения
Вы не можете редактировать свои сообщения
Вы не можете удалять свои сообщения
Вы не можете голосовать в опросах
Вы не можете прикреплять файлы к сообщениям
Вы не можете скачивать файлы