Важное объявление!
У Нас Все раздачи мультитрекерные, при нуле пиров в релизах, можете смело вставать на закачку!
 
Автор Сообщение

HUNTER

Стаж:
4 года 4 месяца
Сообщений:
56722

Репутация: 101

[+] [-]
Вне форума [Профиль] [ЛС]

Постоялый двор шестой степени счастья / The Inn of the Sixth Happiness
Страна: США
Студия: 20th Century Fox Film Corporation
Жанр: драма, военный, биография
Год выпуска: 1958
Продолжительность: 02:37:51
Перевод: Профессиональный (многоголосый закадровый) Двадцатый Век Фокс СНГ
Cубтитры: русские, английские (full, SDH)
Оригинальная аудиодорожка: английский
Режиссер: Марк Робсон / Mark Robson
В ролях: Ингрид Бергман, Курд Юргенс, Роберт Донат, Майкл Дэвид, Эфин Сейлер, Рональд Сквайр, Мултри Келсалл, Ричард Уоттис, Питер Чонг, Тсаи Чин
Описание: Фильм основан на истории жизни Гледис Эйлуорд, современной святой, чья неутолимая жажда творить добро заставила ее пройти полсвета. Всегда мечтавшая о миссионерской деятельности, горничная из Англии отправляется в Китай и открывает там приют для усталых и голодных погонщиков мулов, бродящих удаленными горными тропами.
Постепенно ей удается преодолеть враждебность со стороны местного населения, она завоевывает сердце евразийского полковника и обращает в христианство властного мандарина. Но главный ее подвиг — спасение сотни бездомных детей, которых она уводит с захваченной территории в безопасное место во время вторжения в Китай японцев.

Доп. информация: За синхронизацию русской дорожки и сабов спасибо DarLeg. За их исходники спасибо Euscorpius (RDA).

Sample
Тип релиза: BDRemux 1080p
Контейнер: MKV
Видео: MPEG4 AVC Video, H264, 16:9, 1920x1080, 23,976 fps, 29344 Kbps
Аудио: Russian (AC3, 2 ch, 192 kbps, 16 bits, 48.0 KHz) - MVO R5
Аудио 2: English (DTS-HD MA, 4 ch, 2417 kbps, 24 bits, 48.0 KHz / DTS core: 4 ch, 1509 kbps, 24 bits, 48.0 KHz) - оригинал
Аудио 3: English (AC3, 2 ch, 224 kbps, 16 bits, 48.0 KHz) - комментарии
Формат субтитров: softsub (SRT)

MediaInfo

General
Unique ID : 177095898921397701092216826911855305240 (0x853B6DF2251ED2D08B0A4C6C0BF16218)
Complete name : F:\111\The Inn of the Sixth Happiness.mkv
Format : Matroska
Format version : Version 4 / Version 2
File size : 35.3 GiB
Duration : 2h 37mn
Overall bit rate mode : Variable
Overall bit rate : 32.0 Mbps
Encoded date : UTC 2014-07-08 08:08:32
Writing application : mkvmerge v6.1.0 ('Old Devil') built on Mar 2 2013 14:32:37
Writing library : libebml v1.3.0 + libmatroska v1.4.0
Video
ID : 1
Format : AVC
Format/Info : Advanced Video Codec
Format profile : High@L4.1
Format settings, CABAC : Yes
Format settings, ReFrames : 4 frames
Codec ID : V_MPEG4/ISO/AVC
Duration : 2h 37mn
Bit rate mode : Variable
Maximum bit rate : 35.9 Mbps
Width : 1 920 pixels
Height : 1 080 pixels
Display aspect ratio : 16:9
Frame rate mode : Constant
Frame rate : 23.976 fps
Color space : YUV
Chroma subsampling : 4:2:0
Bit depth : 8 bits
Scan type : Progressive
Language : English
Default : Yes
Forced : No
Audio #1
ID : 2
Format : AC-3
Format/Info : Audio Coding 3
Mode extension : CM (complete main)
Format settings, Endianness : Big
Codec ID : A_AC3
Duration : 2h 37mn
Bit rate mode : Constant
Bit rate : 192 Kbps
Channel count : 2 channels
Channel positions : Front: L R
Sampling rate : 48.0 KHz
Bit depth : 16 bits
Compression mode : Lossy
Stream size : 217 MiB (1%)
Language : Russian
Default : Yes
Forced : No
Audio #2
ID : 3
Format : DTS
Format/Info : Digital Theater Systems
Format profile : MA / Core
Mode : 16
Format settings, Endianness : Big
Codec ID : A_DTS
Duration : 2h 37mn
Bit rate mode : Variable
Bit rate : Unknown / 1 509 Kbps
Channel count : 4 channels
Channel positions : Front: L C R, Back: C
Sampling rate : 48.0 KHz
Bit depth : 24 bits
Compression mode : Lossless / Lossy
Language : English
Default : No
Forced : No
Audio #3
ID : 4
Format : AC-3
Format/Info : Audio Coding 3
Mode extension : CM (complete main)
Format settings, Endianness : Big
Codec ID : A_AC3
Duration : 2h 37mn
Bit rate mode : Constant
Bit rate : 224 Kbps
Channel count : 2 channels
Channel positions : Front: L R
Sampling rate : 48.0 KHz
Bit depth : 16 bits
Compression mode : Lossy
Stream size : 253 MiB (1%)
Title : комментарии
Language : English
Default : No
Forced : No
Text #1
ID : 5
Format : UTF-8
Codec ID : S_TEXT/UTF8
Codec ID/Info : UTF-8 Plain Text
Language : Russian
Default : No
Forced : No
Text #2
ID : 6
Format : UTF-8
Codec ID : S_TEXT/UTF8
Codec ID/Info : UTF-8 Plain Text
Language : English
Default : No
Forced : No
Text #3
ID : 7
Format : UTF-8
Codec ID : S_TEXT/UTF8
Codec ID/Info : UTF-8 Plain Text
Title : SDH
Language : English
Default : No
Forced : No
Menu
00:00:00.000 : en:Main Titles
00:03:20.700 : en:The China Missionary Society
00:06:45.071 : en:The Route to China
00:09:34.407 : en:A Maid
00:12:57.026 : en:A Missing Book
00:15:41.149 : en:Going to China
00:27:02.663 : en:Yang Cheng
00:35:31.129 : en:The Inn of the Sixth Happiness
00:46:42.383 : en:An Accident
00:53:34.420 : en:The Foot Inspector
01:02:08.725 : en:Work and Contentment
01:17:07.456 : en:News of War
01:22:00.332 : en:The Bandits
01:26:15.545 : en:Sixpence
01:34:59.360 : en:Dinner with the Mandarin
01:41:58.738 : en:War
02:03:07.880 : en:The Caretaker
02:08:00.673 : en:The Journey of 100 Children
02:17:27.406 : en:Many Hardships
02:33:09.097 : en:Journey's End

Скриншоты


_________________
Показать сообщения:    

Текущее время: Сегодня 08:23

Часовой пояс: GMT



Вы не можете начинать темы
Вы не можете отвечать на сообщения
Вы не можете редактировать свои сообщения
Вы не можете удалять свои сообщения
Вы не можете голосовать в опросах
Вы не можете прикреплять файлы к сообщениям
Вы не можете скачивать файлы